torrent.by
Поиск
Логин: Регистрация
Пароль: Восстановить пароль
Загрузка...

Comedy Баттл. Новый сезон [32] (2016) WEB-DLRip от OlLanDGroup

 ↓  Скачать comedy-battl-novyy-sezon-32-2016-web-dlrip-ot-ollandgroup.torrent
U Магнитная ссылка Размер: 643.12 MB Раздают: 157 Качают: 11 Добавлен: 2016-12-11 15:24:42
Comedy Баттл. Новый сезон [32] (2016) WEB-DLRip от OlLanDGroup

Оригинальное название: Comedy Баттл. Новый сезон
Жанр:  ТВ-шоу, юмор
Дата выхода в эфир: 09.12.2016
Ведущие: Павел Воля
Участники: Жюри, кандидаты в резиденты

Описание: В этом году участниками битвы станут все самые известные юмористы, когда-либо принимавшие участие в «Comedy Баттл», а также те, кто благодаря участию в шоу стали резидентами Comedy Club. Биться за главный приз с опытными юнитами будут молодые и талантливые новички. Победитель сезона получит 7 миллионов рублей, а такие огромные деньги не помешают никому: ни резиденту Comedy Club, ни начинающему, амбициозному дебютанту. Посмотрим, что возьмет верх: опыт или молодость.

Выпущено: ТНТ, "Comedy Club Production"
Продолжительность: ~ 00:49:23
Язык: Русский

Файл
Кодек: XviD
Качество: WEB-DLRip
Видео: XviD, 1700 Кбит/с, 704x400
Аудио: AC3, 2 ch, 192 Кбит/с
[+] Инфо файл
Общее
Полное имя                               : D:ВидеоComedy.Баттл.32.выпуск(09.12.2016)WEB-DLRip by OlLandGroup.avi
Формат                                   : AVI
Формат/Информация                        : Audio Video Interleave
Размер файла                             : 643 Мбайт
Продолжительность                        : 47 м.
Общий поток                              : 1902 Кбит/сек
Программа кодирования                    : VirtualDubMod 1.5.10.3 | www.virtualdub-fr.org || (build 2550/release)
Библиотека кодирования                   : VirtualDubMod build 2550/release

Видео
Идентификатор                            : 0
Формат                                   : MPEG-4 Visual
Профиль формата                          : Advanced Simple@L5
Параметр BVOP формата                    : 2
Параметр QPel формата                    : Нет
Параметр GMC формата                     : Без точки перехода
Параметр матрицы формата                 : Выборочная
Идентификатор кодека                     : XVID
Идентификатор кодека/Подсказка           : XviD
Продолжительность                        : 47 м.
Битрейт                                  : 1700 Кбит/сек
Ширина                                   : 704 пикселя
Высота                                   : 400 пикселей
Соотношение сторон                       : 16:9
Частота кадров                           : 25,000 кадров/сек
Цветовое пространство                    : YUV
Субдискретизация насыщенности            : 4:2:0
Битовая глубина                          : 8 бит
Тип развёртки                            : Прогрессивная
Метод сжатия                             : С потерями
Бит/(Пиксели*Кадры)                      : 0.241
Размер потока                            : 575 Мбайт (89%)
Библиотека кодирования                   : XviD 73

Аудио
Идентификатор                            : 1
Формат                                   : AC-3
Формат/Информация                        : Audio Coding 3
Расширение режима                        : CM (complete main)
Параметр Endianness формата              : Big
Идентификатор кодека                     : 2000
Продолжительность                        : 47 м.
Вид битрейта                             : Постоянный
Битрейт                                  : 192 Кбит/сек
Каналы                                   : 2 канала
Расположение каналов                     : Front: L R
Частота                                  : 48,0 КГц
Битовая глубина                          : 16 бит
Метод сжатия                             : С потерями
Размер потока                            : 64,9 Мбайт (10%)
Выравнивание                             : Разделение по промежуткам
Продолжительность промежутка             : 40  мс. (1,00 видеокадр)
Время предзагрузки промежутка            : 500  мс.

Скриншоты:
[+] Всего файлов в раздаче - 1:
Comedy.Баттл.32.выпуск(09.12.2016)WEB-DLRip by OlLandGroup.avi643.12 MB

Текущая раздача:
ДатаКомментарии    РазмерПиры
2016-12-11  ↓  Comedy Баттл. Новый сезон [32] (2016) WEB-DLRip от OlLanDGroup 643.12 MB ↑ 157 ↓ 11

Показать ещё раздачи по запросу - comedy:
2017-05-20  ↓  Новый Comedy Club [эфир от 19.05] (2017) WEB-DL 720p 1.22 GB ↑ 188 ↓ 142
2017-05-20  ↓  Новый Comedy Club [эфир от 19.05] (2017) WEB-DLRip от OlLanDGroup 1Комментарии623.38 MB ↑ 409 ↓ 109
2017-05-14  ↓  Новый Comedy Club [эфир от 12.05] (2017) HDTV 1080i 1Комментарии5.07 GB ↑ 87 ↓ 17
2017-05-13  ↓  Новый Comedy Club [эфир от 12.05] (2017) WEB-DLRip от OlLanDGroup 656.28 MB ↑ 179 ↓ 49
2017-05-13  ↓  Новый Comedy Club [эфир от 12.05] (2017) WEB-DL 720p 1.29 GB ↑ 215 ↓ 6
2017-05-12  ↓  Новый Comedy Club [эфир от 12.05] (2017) SATRip 638.68 MB ↑ 656 ↓ 437
2017-05-06  ↓  Новый Comedy Club [эфир от 05.05] (2017) WEB-DL 720p 1.29 GB ↑ 2041 ↓ 112

Отзывы
Зарегистрируйтесь чтобы добавить комментарий.
Обратная связь