torrent.by
Поиск торрента
Логин: Регистрация
Пароль: Восстановить пароль

Новый Comedy Club [эфир от 16.12] (2016) WEB-DLRip от OlLanDGroup

 ↓  Скачать novyy-comedy-club-efir-ot-16-12-2016-web-dlrip-ollandgroup.torrent
U Магнитная ссылка Размер: 652.44 MB Раздают: 222 Качают: 12 Добавлен: 2016-12-19 21:03:17

Новый Comedy Club [эфир от 16.12] (2016) WEB-DLRip от OlLanDGroup

Оригинальное название: Comedy Club
Жанр:  Юмористическое шоу
Дата выхода в эфир: 16.12.2016
Режиссер: Гарик Мартиросян
Ведущие: Гарик Харламов, Павел Воля
В ролях: Сергей Светлаков, Семен Слепаков, Группа USB - United Sexy Boys, Сергей Гореликов, Павел Воля, Тимур Батрутдинов, Виктор Васильев и Дмитрий Хрусталев, Дуэт «Рома и Леша», Зураб Матуа, Андрей Аверин, Дмитрий «Люсёк» Сорокин, Александр Незлобин и Элвис

Описание: На ТНТ стартует новый сезон Comedy Club. Отныне каждый выпуск шоу будет посвящен определенной тематике: мир моды и кино, День космонавтики, 1 апреля, 8 марта и даже выпуск целиком посвященный дню рождения одного из резидентов. Не пропусти! Самое популярное комедийное шоу на российском телевидении возвращается с абсолютно новой программой.

Выпущено: ТНТ, "Comedy Club Production"
Продолжительность: 00:45:22
Язык: Русский

Файл
Кодек: XviD
Качество: WEB-DLRip
Видео: XviD, 1700 Кбит/с, 704x400
Аудио: AC3, 2 ch, 192 Кбит/с

[+] Инфо файл
Общее
Полное имя                               : D:ВидеоComedy Club (16.12.2016)WEB-DLRip by OlLanDGroup.avi
Формат                                   : AVI
Формат/Информация                        : Audio Video Interleave
Размер файла                             : 652 Мбайт
Продолжительность                        : 47 м.
Общий поток                              : 1902 Кбит/сек
Программа кодирования                    : VirtualDubMod 1.5.10.3 | www.virtualdub-fr.org || (build 2550/release)
Библиотека кодирования                   : VirtualDubMod build 2550/release

Видео
Идентификатор                            : 0
Формат                                   : MPEG-4 Visual
Профиль формата                          : Advanced Simple@L5
Параметр BVOP формата                    : 2
Параметр QPel формата                    : Нет
Параметр GMC формата                     : Без точки перехода
Параметр матрицы формата                 : Выборочная
Идентификатор кодека                     : XVID
Идентификатор кодека/Подсказка           : XviD
Продолжительность                        : 47 м.
Битрейт                                  : 1700 Кбит/сек
Ширина                                   : 704 пикселя
Высота                                   : 400 пикселей
Соотношение сторон                       : 16:9
Частота кадров                           : 25,000 кадров/сек
Цветовое пространство                    : YUV
Субдискретизация насыщенности            : 4:2:0
Битовая глубина                          : 8 бит
Тип развёртки                            : Прогрессивная
Метод сжатия                             : С потерями
Бит/(Пиксели*Кадры)                      : 0.241
Размер потока                            : 583 Мбайт (89%)
Библиотека кодирования                   : XviD 73

Аудио
Идентификатор                            : 1
Формат                                   : AC-3
Формат/Информация                        : Audio Coding 3
Расширение режима                        : CM (complete main)
Параметр Endianness формата              : Big
Идентификатор кодека                     : 2000
Продолжительность                        : 47 м.
Вид битрейта                             : Постоянный
Битрейт                                  : 192 Кбит/сек
Каналы                                   : 2 канала
Расположение каналов                     : Front: L R
Частота                                  : 48,0 КГц
Битовая глубина                          : 16 бит
Метод сжатия                             : С потерями
Размер потока                            : 65,9 Мбайт (10%)
Выравнивание                             : Разделение по промежуткам
Продолжительность промежутка             : 40  мс. (1,00 видеокадр)
Время предзагрузки промежутка            : 500  мс.

Скриншоты:

[+] Всего файлов в раздаче - 1:
Comedy Club (16.12.2016)WEB-DLRip by OlLanDGroup.avi652.44 MB

Текущая раздача:
Дата Комментарии      Название Размер Пиры
2016-12-19  ↓  Новый Comedy Club [эфир от 16.12] (2016) WEB-DLRip от OlLanDGroup 652.44 MB ↑ 222 ↓ 12

Показать ещё раздачи по запросу - новый:
2017-02-24  ↓  Одноклассницы: Новый поворот (2017) CAMRip 1.37 GB ↑ 448 ↓ 236
2017-01-30  ↓  Китайский новый год (2017) HDTVRip от Files-x 1.37 GB ↑ 511 ↓ 86
2017-01-21  ↓  Новый Comedy Club [эфир от 20.01] (2017) WEB-DLRip 615.80 MB ↑ 426 ↓ 98
2017-01-21  ↓  Новый Comedy Club [эфир от 20.01] (2017) WEB-DL 720p 1.19 GB ↑ 357 ↓ 118
2017-01-20  ↓  Новый Comedy Club [эфир 20.01] (2017) SATRip 638.12 MB ↑ 826 ↓ 414
2017-01-14  ↓  Новый Comedy Club [эфир 13.01] (2017) WEB-DL 720p 1.20 GB ↑ 123 ↓ 78
2017-01-14  ↓  Новый Comedy Club [эфир от 13.01] (2017) SATRip 652.21 MB ↑ 225 ↓ 82

Отзывы
Зарегистрируйтесь чтобы добавить комментарий.
Обратная связь