↑↓torrent.by
Поиск
Логин: Регистрация
Пароль: Восстановить пароль

Обитель зла: Бесконечная тьма / Resident Evil: Infinite Darkness [S01] (2021) WEBRip 1080p | Flarrow Films

Скачать obitel-zla-beskonechnaya-tma-resident-evil-infinite-darkness-s01-2021-webrip-1080p-flarrow-films.torrent
U Магнитная ссылка Размер: 4.06 GB Раздают: 7 Качают: 8 Добавлен: 2021-07-15 08:15:33
Обитель зла: Бесконечная тьма / Resident Evil: Infinite Darkness [S01] (2021) WEBRip 1080p | Flarrow Films

Название: Обитель зла: Бесконечная тьма
Оригинальное название: Resident Evil: Infinite Darkness
Год выхода: 2021
Жанр: мультфильм, фэнтези, комедия, приключения, семейный
Режиссер: Эиитиро Хасуми
В ролях: Ник Апостолидес, Стефани Паниселло, Джона Сяо, Рэй Чейз, Билли Каметц, Даг Стоун, Джо Томас, Брэд Венейбл

О фильме:
2006 год. Леон Кеннеди прибывает в Белый дом расследовать хакерскую атаку и на месте застает очередной прорыв зомби. Вместе с Клэр Рэтфилд он пытается разгадать чей-то зловещий план и вычислить злоумышленников.

Страна: США, Япония
Продолжительность: 00:26:07 (серия)
Перевод: Профессиональный (многоголосый, закадровый) | Flarrow Films

Роли озвучивали: Лена Лунина, Ахилл Намазов, Рина Чернышова, Семён Евсиков, Алексей Ядренников, Виталий Кашеваров, Дмитрий Мальков и Дмитрий Бугаков

Файл
Формат: MKV
Кодек: MPEG-4 AVC
Качество: WEBRip 1080p
Видео: 1920х1080, ~ 4 102 kb/s, 24.000, 8 bits
Звук: AC-3, 320 kb/s, 2 channels, 48.0 kHz
Субтитры: русские (отключаемые)

Релиз от: Flarrow Films
Примечание: Релиз без рекламы


[+] MediaInfo


General
Unique ID                   : 28837047854796673090343836689701593334 (0x15B1D03ACB4FAF490174577F2E30E0F6)
Complete name               : C:FlarrowRESIDENT.EVIL.Infinite.Darkness.S01.1080p.Flarrow.FimsRESIDENT.EVIL.Infinite.Darkness.S01E01.mkv
Format                      : Matroska
Format version              : Version 4
File size                   : 826 MiB
Duration                    : 26 min 7 s
Overall bit rate mode       : Variable
Overall bit rate            : 4 418 kb/s
Encoded date                : UTC 2021-07-13 19:02:44
Writing application         : mkvmerge v32.0.0 ('Astral Progressions') 64-bit
Writing library             : libebml v1.3.7 + libmatroska v1.5.0

Video
ID                          : 1
Format                      : AVC
Format/Info                 : Advanced Video Codec
Format profile              : High@L4
Format settings             : CABAC / 4 Ref Frames
Format settings, CABAC      : Yes
Format settings, Reference  : 4 frames
Codec ID                    : V_MPEG4/ISO/AVC
Duration                    : 26 min 5 s
Bit rate mode               : Variable
Bit rate                    : 4 102 kb/s
Maximum bit rate            : 20.0 Mb/s
Width                       : 1 920 pixels
Height                      : 1 080 pixels
Display aspect ratio        : 16:9
Frame rate mode             : Constant
Frame rate                  : 24.000 FPS
Color space                 : YUV
Chroma subsampling          : 4:2:0
Bit depth                   : 8 bits
Scan type                   : Progressive
Bits/(Pixel*Frame)          : 0.082
Stream size                 : 765 MiB (93%)
Writing library             : x264 core 148 r2722 1b0121b
Encoding settings           : cabac=1 / ref=4 / deblock=1:0:0 / analyse=0x3:0x111 / me=umh / subme=10 / psy=1 / psy_rd=1.00:0.00 / mixed_ref=1 / me_range=120 / chroma_me=1 / trellis=2 / 8x8dct=1 / cqm=0 / deadzone=21,11 / fast_pskip=1 / chroma_qp_offset=-2 / threads=8 / lookahead_threads=2 / sliced_threads=0 / nr=0 / decimate=1 / interlaced=0 / bluray_compat=0 / stitchable=1 / constrained_intra=0 / bframes=16 / b_pyramid=2 / b_adapt=2 / b_bias=0 / direct=3 / weightb=1 / open_gop=0 / weightp=2 / keyint=240 / keyint_min=121 / scenecut=0 / intra_refresh=0 / rc_lookahead=240 / rc=crf / mbtree=1 / crf=17.0 / qcomp=0.50 / qpmin=6 / qpmax=51 / qpstep=4 / vbv_maxrate=20000 / vbv_bufsize=25000 / crf_max=0.0 / nal_hrd=vbr / filler=0 / ip_ratio=1.40 / aq=1:0.80
Default                     : Yes
Forced                      : No

Audio
ID                          : 2
Format                      : AC-3
Format/Info                 : Audio Coding 3
Commercial name             : Dolby Digital
Codec ID                    : A_AC3
Duration                    : 26 min 7 s
Bit rate mode               : Constant
Bit rate                    : 320 kb/s
Channel(s)                  : 2 channels
Channel layout              : L R
Sampling rate               : 44.1 kHz
Frame rate                  : 28.711 FPS (1536 SPF)
Compression mode            : Lossy
Stream size                 : 59.8 MiB (7%)
Language                    : Russian
Service kind                : Complete Main
Default                     : Yes
Forced                      : No

Text
ID                          : 3
Format                      : UTF-8
Codec ID                    : S_TEXT/UTF8
Codec ID/Info               : UTF-8 Plain Text
Duration                    : 23 min 52 s
Bit rate                    : 91 b/s
Count of elements           : 280
Stream size                 : 16.0 KiB (0%)
Language                    : Russian
Default                     : Yes
Forced                      : No




Скриншоты:
[+] Всего файлов в раздаче - 4:

Показать еще раздачи по запросу обитель:
2021-09-08 U Аниара: Космическая обитель / Aniara (2018) BDRemux 1080p от ELEKTRI4KA | IVI 26.88 GB ↑ 32 ↓ 15
2021-09-08 U Аниара: Космическая обитель / Aniara (2018) HDRip-AVC | IVI 2.18 GB ↑ 78 ↓ 30
2021-09-08 U Аниара: Космическая обитель / Aniara (2018) BDRip 720p от ELEKTRI4KA | IVI 5.66 GB ↑ 131 ↓ 39
2021-09-08 U Аниара: Космическая обитель / Aniara (2018) BDRip от ELEKTRI4KA | IVI 1.46 GB ↑ 198 ↓ 68
2021-07-17 U Обитель зла: Бесконечная тьма / Resident Evil: Infinite Darkness [S01] (2021) WEB-DL 720p | LostFilm 2.59 GB ↑ 83 ↓ 2
2021-07-13 U Обитель зла: Бесконечная тьма / Resident Evil: Infinite Darkness [S01] (2021) WEB-DL 1080p | AlexFilm 4.59 GB ↑ 48 ↓ 25
2021-07-10 U Обитель зла: Бесконечная тьма / Resident Evil: Infinite Darkness [S01] (2021) WEBRip 1080p | LakeFilms 3.82 GB ↑ 115 ↓ 29

Отзывы
Зарегистрируйтесь чтобы добавить комментарий.
Загрузите программу
  byTorrent
Обратная связь
Copyleft ©