↑↓torrent.by
Поиск
Логин: Регистрация
Пароль: Восстановить пароль

Обитель зла: Бесконечная тьма / Resident Evil: Infinite Darkness [S01] (2021) WEB-DL 720p | LostFilm

Скачать obitel-zla-beskonechnaya-tma-resident-evil-infinite-darkness-s01-2021-web-dl-720p-lostfilm.torrent
U Магнитная ссылка Размер: 2.59 GB Раздают: 83 Качают: 2 Добавлен: 2021-07-17 10:10:26
Обитель зла: Бесконечная тьма / Resident Evil: Infinite Darkness [S01] (2021) WEB-DL 720p | LostFilm

Название: Обитель зла: Бесконечная тьма
Оригинальное название: Resident Evil: Infinite Darkness
Год выхода: 2021
Жанр: аниме, мультфильм, ужасы, боевик, фантастика
Режиссер: Эиитиро Хасуми
В ролях: Ник Апостолидес, Стефани Паниселло, Джона Сяо, Рэй Чейз, Билли Каметц, Даг Стоун, Джо Томас, Брэд Венейбл.
О фильме:
2006 год. Леон Кеннеди прибывает в Белый дом расследовать хакерскую атаку и на месте застает очередной прорыв зомби. Вместе с Клэр Рэтфилд он пытается разгадать чей-то зловещий план и вычислить злоумышленников.

 
Возраст: 18+ (зрителям, достигшим 18 лет. запрещено для детей)
Дата мировой премьеры: 8 июля 2021 года

Страна: США, Япония
Студия: Netflix.
Продолжительность: ~ 00:26:00 серия
Перевод: Профессиональный (многоголосый закадровый) | LostFilm

Файл
Кодек: MPEG-4 AVC/х.264
Качество: WEB-DL 720p
Видео: 1280x720 (16:9), 24.000 fps, ~1860 kbps, 0.084 bit/pixel
Звук:
Аудио # 1: AC3, 48 kHz, 6 ch, 640 kbps - LostFilm
Аудио # 2: E-AC-3, 48 kHz, 6 ch, 640 kbps - английский
Субтитры: русские, английские
Реклама: Отсутствует

Семпл

Релиз от: Grandfather61


[+] Релиз:

Релиз: Grandfather61
Дорожка 1 получена наложением выделенных голосов от «LostFilm» на центр оригинального AC3.
Монтаж, работа со звуком: Grandfather61



[+] MediaInfo:

Общее
Уникальный идентификатор                 : 288323500808812896090669518323641145369 (0xD8E9161D833338BDB79B4A2C3066D819)
Полное имя                               : G:RESIDENT.EVIL.Infinite.Darkness.S01.720p.WEBRip.DD5.1.LostFilmRESIDENT.EVIL.Infinite.Darkness.S01E01.720p.WEBRip.DD5.1.LostFilm.mkv
Формат                                   : Matroska
Версия формата                           : Version 4
Размер файла                             : 587 Мбайт
Продолжительность                        : 26 м. 6 с.
Режим общего битрейта                    : Переменный
Общий поток                              : 3 142 Кбит/сек
Дата кодирования                         : UTC 2021-07-11 06:32:16
Программа кодирования                    : mkvmerge v59.0.0 ('Shining Star') 64-bit
Библиотека кодирования                   : libebml v1.4.2 + libmatroska v1.6.4

Видео
Идентификатор                            : 1
Формат                                   : AVC
Формат/Информация                        : Advanced Video Codec
Профиль формата                          : Main@L3.1
Настройки формата                        : CABAC / 3 Ref Frames
Параметр CABAC формата                   : Да
Параметр RefFrames формата               : 3 кадра
Идентификатор кодека                     : V_MPEG4/ISO/AVC
Продолжительность                        : 26 м. 6 с.
Вид битрейта                             : Переменный
Битрейт                                  : 1 860 Кбит/сек
Номинальный битрейт                      : 2 797 Кбит/сек
Максимальный битрейт                     : 6 630 Кбит/сек
Ширина                                   : 1 280 пикселей
Высота                                   : 720 пикселей
Соотношение сторон                       : 16:9
Режим частоты кадров                     : Постоянный
Частота кадров                           : 24,000 кадра/сек
Цветовое пространство                    : YUV
Субдискретизация насыщенности            : 4:2:0
Битовая глубина                          : 8 бит
Тип развёртки                            : Прогрессивная
Бит/(Пиксели*Кадры)                      : 0.084
Размер потока                            : 347 Мбайт (59%)
Библиотека кодирования                   : x264 core 148 r2722 1b0121b
Настройки программы                      : cabac=1 / ref=3 / deblock=1:0:0 / analyse=0x1:0x111 / me=umh / subme=10 / psy=1 / psy_rd=1.00:0.00 / mixed_ref=1 / me_range=24 / chroma_me=1 / trellis=2 / 8x8dct=0 / cqm=0 / deadzone=21,11 / fast_pskip=1 / chroma_qp_offset=-2 / threads=8 / lookahead_threads=1 / sliced_threads=0 / nr=0 / decimate=1 / interlaced=0 / bluray_compat=0 / stitchable=1 / constrained_intra=0 / bframes=2 / b_pyramid=0 / b_adapt=2 / b_bias=0 / direct=3 / weightb=1 / open_gop=0 / weightp=2 / keyint=250 / keyint_min=24 / scenecut=0 / intra_refresh=0 / rc_lookahead=48 / rc=2pass / mbtree=1 / bitrate=2797 / ratetol=1.0 / qcomp=0.50 / qpmin=6 / qpmax=51 / qpstep=4 / cplxblur=20.0 / qblur=0.5 / vbv_maxrate=6630 / vbv_bufsize=8840 / nal_hrd=vbr / filler=0 / ip_ratio=1.40 / aq=1:1.00
Язык                                     : English
Default                                  : Да
Forced                                   : Нет

Аудио #1
Идентификатор                            : 2
Формат                                   : AC-3
Формат/Информация                        : Audio Coding 3
Коммерческое название                    : Dolby Digital
Идентификатор кодека                     : A_AC3
Продолжительность                        : 26 м. 6 с.
Вид битрейта                             : Постоянный
Битрейт                                  : 640 Кбит/сек
Каналы                                   : 6 каналов
Channel layout                           : L R C LFE Ls Rs
Частота                                  : 48,0 КГц
Частота кадров                           : 31,250 кадров/сек (1536 SPF)
Метод сжатия                             : С потерями
Размер потока                            : 120 Мбайт (20%)
Заголовок                                : LostFilm
Язык                                     : Russian
Service kind                             : Complete Main
Default                                  : Да
Forced                                   : Нет

Аудио #2
Идентификатор                            : 3
Формат                                   : E-AC-3
Формат/Информация                        : Enhanced AC-3
Коммерческое название                    : Dolby Digital Plus
Идентификатор кодека                     : A_EAC3
Продолжительность                        : 26 м. 6 с.
Вид битрейта                             : Постоянный
Битрейт                                  : 640 Кбит/сек
Каналы                                   : 6 каналов
Channel layout                           : L R C LFE Ls Rs
Частота                                  : 48,0 КГц
Частота кадров                           : 31,250 кадров/сек (1536 SPF)
Метод сжатия                             : С потерями
Размер потока                            : 120 Мбайт (20%)
Заголовок                                : English
Язык                                     : English
Service kind                             : Complete Main
Default                                  : Нет
Forced                                   : Нет

Текст #1
Идентификатор                            : 4
Формат                                   : UTF-8
Идентификатор кодека                     : S_TEXT/UTF8
Идентификатор кодека/Информация          : UTF-8 Plain Text
Продолжительность                        : 25 м. 8 с.
Битрейт                                  : 84 бит/сек
Count of elements                        : 279
Размер потока                            : 15,5 Кбайт (0%)
Заголовок                                : Russian
Язык                                     : Russian
Default                                  : Нет
Forced                                   : Нет

Текст #2
Идентификатор                            : 5
Формат                                   : UTF-8
Идентификатор кодека                     : S_TEXT/UTF8
Идентификатор кодека/Информация          : UTF-8 Plain Text
Продолжительность                        : 23 м. 10 с.
Битрейт                                  : 73 бит/сек
Count of elements                        : 394
Размер потока                            : 12,4 Кбайт (0%)
Заголовок                                : English CC
Язык                                     : English
Default                                  : Нет
Forced                                   : Нет




Скриншоты:
[+] Всего файлов в раздаче - 4:

Показать еще раздачи по запросу обитель:
2021-09-08 U Аниара: Космическая обитель / Aniara (2018) BDRemux 1080p от ELEKTRI4KA | IVI 26.88 GB ↑ 32 ↓ 15
2021-09-08 U Аниара: Космическая обитель / Aniara (2018) HDRip-AVC | IVI 2.18 GB ↑ 78 ↓ 30
2021-09-08 U Аниара: Космическая обитель / Aniara (2018) BDRip 720p от ELEKTRI4KA | IVI 5.66 GB ↑ 131 ↓ 39
2021-09-08 U Аниара: Космическая обитель / Aniara (2018) BDRip от ELEKTRI4KA | IVI 1.46 GB ↑ 198 ↓ 68
2021-07-15 U Обитель зла: Бесконечная тьма / Resident Evil: Infinite Darkness [S01] (2021) WEBRip 1080p | Flarrow Films 4.06 GB ↑ 7 ↓ 8
2021-07-13 U Обитель зла: Бесконечная тьма / Resident Evil: Infinite Darkness [S01] (2021) WEB-DL 1080p | AlexFilm 4.59 GB ↑ 48 ↓ 25
2021-07-10 U Обитель зла: Бесконечная тьма / Resident Evil: Infinite Darkness [S01] (2021) WEBRip 1080p | LakeFilms 3.82 GB ↑ 115 ↓ 29

Отзывы
Зарегистрируйтесь чтобы добавить комментарий.
Загрузите программу
  byTorrent
Обратная связь
Copyleft ©