↑↓torrent.by
Поиск
Логин: Регистрация
Пароль: Восстановить пароль

Телохранитель жены киллера / Hitman's Wife's Bodyguard (2021) WEBRip 1080p | L

Скачать telohranitel-zheny-killera-hitman-s-wife-bodyguard-2021-webrip-1080p-l.torrent
U Магнитная ссылка Размер: 3.88 GB Раздают: 584 Качают: 131 Добавлен: 2021-07-19 09:01:31
Телохранитель жены киллера / Hitman's Wife's Bodyguard (2021) WEBRip 1080p |  L

Название: Телохранитель жены киллера
Оригинальное название: Hitman's Wife's Bodyguard
Год выхода: 2021
Жанр: боевик, комедия

Режиссер: Патрик Хьюз

В ролях: Райан Рейнольдс, Сэмюэл Л. Джексон, Сальма Хайек, Морган Фримен, Гэри Олдман, Фрэнк Грилло, Антонио Бандерас, Том Хоппер, Ричард Э. Грант, Кэролайн Гудолл

О фильме:
Жизнь здорово потрепала нервишки Майкла Брайса, так что с карьерой телохранителя он решил завязать. Психотерапевт посоветовал ему отправиться на тихий курорт, вооружившись лишь книжкой и плейлистом расслабляющей музыки. Но и здесь его находит самая безумная в мире парочка: киллер мирового уровня и настоящий магнит неприятностей Дариус Кинкейд и его супруга Соня— буйная дамочка не робкого десятка. Преступный синдикат устроил на них охоту, и Майклу, при всем желании остаться в стороне, придется вернуться к старому ремеслу и снова стать телохранителем. На этот раз — жены киллера!

Страна: Великобритания, США
Продолжительность: 01:39:40
Перевод: Любительский (многоголосый, закадровый) | AlphaProject

Файл
Кодек: x.264
Качество: WEBRip 1080p
Видео: AVC, 1920x1080 (16:9), 24.000 fps, 5 000 kb/s
Аудио 1: AC3, 48.0 kHz, 2 ch, 192 kb/s | RUS | (Tnx.Sound Master)
Аудио 2: AC3, 48.0 kHz, 2 ch, 384 kb/s | ENG
Субтитры:  Английские

Рекламы нет | Семпл


[+] MI
General
Unique ID                                : 173285048181888159650938383526574849821 (0x825D7C7F853F2999B4E3981945DA7F1D)
Complete name                            : The Hitman's Wife's Bodyguard.(2021).WEBRip.1080p.mkv
Format                                   : Matroska
Format version                           : Version 4
File size                                : 3.88 GiB
Duration                                 : 1 h 39 min
Overall bit rate                         : 5 578 kb/s
Encoded date                             : UTC 2021-07-18 10:24:59
Writing application                      : mkvmerge v8.3.0 ('Over the Horizon') 64bit
Writing library                          : libebml v1.3.1 + libmatroska v1.4.2

Video
ID                                       : 1
Format                                   : AVC
Format/Info                              : Advanced Video Codec
Format profile                           : High@L4
Format settings                          : CABAC / 2 Ref Frames
Format settings, CABAC                   : Yes
Format settings, ReFrames                : 2 frames
Codec ID                                 : V_MPEG4/ISO/AVC
Duration                                 : 1 h 39 min
Bit rate                                 : 5 000 kb/s
Width                                    : 1 920 pixels
Height                                   : 1 080 pixels
Display aspect ratio                     : 16:9
Frame rate mode                          : Constant
Frame rate                               : 24.000 FPS
Color space                              : YUV
Chroma subsampling                       : 4:2:0
Bit depth                                : 8 bits
Scan type                                : Progressive
Bits/(Pixel*Frame)                       : 0.100
Stream size                              : 3.48 GiB (90%)
Writing library                          : x264 core 129
Encoding settings                        : cabac=1 / ref=2 / deblock=1:0:0 / analyse=0x3:0x113 / me=hex / subme=6 / psy=1 / psy_rd=1.00:0.00 / mixed_ref=1 / me_range=16 / chroma_me=1 / trellis=0 / 8x8dct=1 / cqm=0 / deadzone=21,11 / fast_pskip=1 / chroma_qp_offset=-2 / threads=2 / lookahead_threads=1 / sliced_threads=0 / nr=0 / decimate=1 / interlaced=0 / bluray_compat=0 / constrained_intra=0 / bframes=0 / weightp=2 / keyint=250 / keyint_min=25 / scenecut=40 / intra_refresh=0 / rc_lookahead=40 / rc=2pass / mbtree=1 / bitrate=5000 / ratetol=1.0 / qcomp=0.60 / qpmin=10 / qpmax=51 / qpstep=4 / cplxblur=20.0 / qblur=0.5 / ip_ratio=1.41 / aq=1:1.00
Default                                  : Yes
Forced                                   : No

Audio #1
ID                                       : 2
Format                                   : AC-3
Format/Info                              : Audio Coding 3
Commercial name                          : Dolby Digital
Codec ID                                 : A_AC3
Duration                                 : 1 h 39 min
Bit rate mode                            : Constant
Bit rate                                 : 192 kb/s
Channel(s)                               : 2 channels
Channel layout                           : L R
Sampling rate                            : 48.0 kHz
Frame rate                               : 31.250 FPS (1536 SPF)
Bit depth                                : 16 bits
Compression mode                         : Lossy
Stream size                              : 137 MiB (3%)
Title                                    : MVO (AlphaProject)
Language                                 : Russian
Service kind                             : Complete Main
Default                                  : Yes
Forced                                   : No

Audio #2
ID                                       : 3
Format                                   : AC-3
Format/Info                              : Audio Coding 3
Commercial name                          : Dolby Digital
Codec ID                                 : A_AC3
Duration                                 : 1 h 39 min
Bit rate mode                            : Constant
Bit rate                                 : 384 kb/s
Channel(s)                               : 2 channels
Channel layout                           : L R
Sampling rate                            : 48.0 kHz
Frame rate                               : 31.250 FPS (1536 SPF)
Bit depth                                : 16 bits
Compression mode                         : Lossy
Stream size                              : 274 MiB (7%)
Title                                    : Original
Language                                 : English
Service kind                             : Complete Main
Default                                  : No
Forced                                   : No

Text #1
ID                                       : 4
Format                                   : UTF-8
Codec ID                                 : S_TEXT/UTF8
Codec ID/Info                            : UTF-8 Plain Text
Duration                                 : 1 h 32 min
Bit rate                                 : 78 b/s
Count of elements                        : 1458
Stream size                              : 53.4 KiB (0%)
Title                                    : Full
Language                                 : English
Default                                  : No
Forced                                   : No

Text #2
ID                                       : 5
Format                                   : UTF-8
Codec ID                                 : S_TEXT/UTF8
Codec ID/Info                            : UTF-8 Plain Text
Duration                                 : 1 h 32 min
Bit rate                                 : 90 b/s
Count of elements                        : 1648
Stream size                              : 61.1 KiB (0%)
Title                                    : SDH
Language                                 : English
Default                                  : No
Forced                                   : No



Скриншоты:
[+] Всего файлов в раздаче - 1:

Показать еще раздачи по запросу телохранитель:
2021-09-22 U Телохранитель жены киллера / Hitman's Wife's Bodyguard (2021) WEB-DLRip 720p | D, A | Extended Cut 4.15 GB ↑ 68 ↓ 25
2021-09-22 U Телохранитель жены киллера / Hitman's Wife's Bodyguard (2021) WEB-DLRip-AVC | D, A | Extended Cut 2.72 GB ↑ 47 ↓ 5
2021-08-13 U Телохранитель жены киллера / Hitman's Wife's Bodyguard (2021) WEB-DLRip от Twister & ExKinoRay | Extended Cut | D 1.47 GB ↑ 188 ↓ 24
2021-08-13 U Телохранитель жены киллера / Hitman's Wife's Bodyguard (2021) WEB-DLRip от Twister & ExKinoRay | Extended Cut | D 2.18 GB ↑ 22 ↓ 32
2021-08-11 U Телохранитель жены киллера / Hitman's Wife's Bodyguard (2021) WEB-DL 1080p от ELEKTRI4KA | Extended Cut | D 6.11 GB ↑ 13 ↓ 19
2021-08-07 U Телохранитель жены киллера / Hitman's Wife's Bodyguard (2021) WEB-DLRip-AVC | D | Extended Cut 742.95 MB ↑ 152 ↓ 20
2021-08-02 U Телохранитель жены киллера / Hitman's Wife's Bodyguard (2021) WEB-DLRip-AVC | Extended Cut | D, L2 | Line 2.20 GB ↑ 46 ↓ 7

Отзывы
Зарегистрируйтесь чтобы добавить комментарий.
Загрузите программу
  byTorrent
Обратная связь
Copyleft ©