↑↓Torrent.by
Поиск
Логин: Регистрация
Пароль: Восстановить пароль
Загрузка...

Молчание / Silence (2016) BDRip 1080p от New-Team & qqss44 | iTunes

Скачать molchanie-silence-2016-bdrip-1080p-ot-new-team-qqss44-itunes.torrent
U Магнитная ссылка Размер: 7.47 GB Раздают: 145 Качают: 83 Добавлен: 2017-05-13 16:45:59
Молчание / Silence (2016) BDRip 1080p от New-Team & qqss44 | iTunes

Мы "В КОНТАКТЕ"

Информация о фильме
Название: Молчание
Оригинальное название: Silence
Год выпуска: 2016
Жанр: Драма, история
Режиссер: Мартин Скорсезе
В ролях: Эндрю Гарфилд, Адам Драйвер, Лиам Нисон, Таданобу Асано, Киаран Хайндс, Иссэй Огата, Синья Цукамото, Ёси Оида, Есуке Кубодзука, Каору Эндо

О фильме:
В XVII веке два священника-иезуита подвергаются насилию и преследованиям во время странствия по Японии, куда они приехали с целью найти своего наставника и распространять христианское Евангелие...

Страна: Мексика, Тайвань, США
Студия: Cappa Defina Productions, Emmett/Furla/Oasis Films (EFO Films)
Продолжительность: 02:41:09
Перевод: Дублированный | iTunes

Файл
Формат: MKV, BDRip 1080p
Видео: MPEG-4 AVC, 6250 Кбит/с, 1920x804
Aудио#1: [RUS] AC3 | 48 KHz | 5.1 (Front: L С R Side: L R) + LFE | ~384 kbps
Субтитры: русские (форсированные и полные)
Релиз от:


[+] МИ

Общее
Уникальный идентификатор                 : 191947106181093106928563922353658045429 (0x9067AAFEFC31A40E9990C6E19070A3F5)
Полное имя                               : X:�0000Silence.(2016).BDRip.1080p.(qqss44).mkv
Формат                                   : Matroska
Версия формата                           : Version 2
Размер файла                             : 7,47 Гбайт
Продолжительность                        : 2 ч. 41 м.
Общий поток                              : 6635 Кбит/сек
Название фильма                          : Silence.(2016).BDRip.1080p.(qqss44)
Дата кодирования                         : UTC 2017-05-13 07:58:34
Программа кодирования                    : mkvmerge v5.8.0 ('No Sleep / Pillow') built on Sep  2 2012 15:37:04
Библиотека кодирования                   : libebml v1.2.3 + libmatroska v1.3.0
Обложка                                  : Yes
Attachments                              : cover.jpg

Видео
Идентификатор                            : 1
Формат                                   : AVC
Формат/Информация                        : Advanced Video Codec
Профиль формата                          : High@L4.1
Параметр CABAC формата                   : Да
Параметр ReFrames формата                : 5 кадров
Идентификатор кодека                     : V_MPEG4/ISO/AVC
Продолжительность                        : 2 ч. 41 м.
Битрейт                                  : 6250 Кбит/сек
Ширина                                   : 1920 пикселей
Высота                                   : 804 пикселя
Соотношение сторон                       : 2,40:1
Режим частоты кадров                     : Постоянный
Частота кадров                           : 23,976 (24000/1001) кадра/сек
Цветовое пространство                    : YUV
Субдискретизация насыщенности            : 4:2:0
Битовая глубина                          : 8 бит
Тип развёртки                            : Прогрессивная
Бит/(Пиксели*Кадры)                      : 0.169
Размер потока                            : 6,89 Гбайт (92%)
Заголовок                                : Silence.(2016).BDRip.1080p.(qqss44)
Библиотека кодирования                   : x264 core 148 r2744kMod b97ae06
Настройки программы                      : cabac=1 / ref=5 / deblock=1:-3:-3 / analyse=0x3:0x113 / me=umh / subme=11 / psy=1 / fade_compensate=0.00 / psy_rd=1.00:0.00 / mixed_ref=1 / me_range=32 / chroma_me=1 / trellis=2 / 8x8dct=1 / cqm=0 / deadzone=21,11 / fast_pskip=0 / chroma_qp_offset=-2 / threads=12 / lookahead_threads=2 / sliced_threads=0 / nr=0 / decimate=0 / interlaced=0 / bluray_compat=0 / constrained_intra=0 / bframes=9 / b_pyramid=2 / b_adapt=2 / b_bias=0 / direct=3 / weightb=1 / open_gop=0 / weightp=2 / keyint=240 / keyint_min=23 / scenecut=40 / intra_refresh=0 / rc=2pass / mbtree=0 / bitrate=6250 / ratetol=1.0 / qcomp=0.69 / qpmin=0 / qpmax=69 / qpstep=4 / cplxblur=20.0 / qblur=0.5 / ip_ratio=1.40 / pb_ratio=1.30 / aq=3:0.70
Язык                                     : English
Default                                  : Да
Forced                                   : Нет

Аудио
Идентификатор                            : 2
Формат                                   : AC-3
Формат/Информация                        : Audio Coding 3
Расширение режима                        : CM (complete main)
Параметр Endianness формата              : Big
Идентификатор кодека                     : A_AC3
Продолжительность                        : 2 ч. 41 м.
Вид битрейта                             : Постоянный
Битрейт                                  : 384 Кбит/сек
Каналы                                   : 6 каналов
Расположение каналов                     : Front: L C R, Side: L R, LFE
Частота                                  : 48,0 КГц
Частота кадров                           : 31,250 кадров/сек (1536 spf)
Метод сжатия                             : С потерями
Размер потока                            : 443 Мбайт (6%)
Заголовок                                : DUB | DD5.1 @ 384 kbps
Язык                                     : Russian
Default                                  : Да
Forced                                   : Нет

Текст #1
Идентификатор                            : 3
Формат                                   : UTF-8
Идентификатор кодека                     : S_TEXT/UTF8
Идентификатор кодека/Информация          : UTF-8 Plain Text
Заголовок                                : FORCED
Язык                                     : Russian
Default                                  : Да
Forced                                   : Нет

Текст #2
Идентификатор                            : 4
Формат                                   : UTF-8
Идентификатор кодека                     : S_TEXT/UTF8
Идентификатор кодека/Информация          : UTF-8 Plain Text
Заголовок                                : FULL
Язык                                     : Russian
Default                                  : Нет
Forced                                   : Нет

Меню
00:00:00.000                             : en:Chapter 01
00:12:59.904                             : en:Chapter 02
00:22:15.793                             : en:Chapter 03
00:33:21.708                             : en:Chapter 04
00:41:58.975                             : en:Chapter 05
00:51:14.029                             : en:Chapter 06
01:03:15.291                             : en:Chapter 07
01:10:57.128                             : en:Chapter 08
01:22:59.099                             : en:Chapter 09
01:30:19.914                             : en:Chapter 10
01:41:49.645                             : en:Chapter 11
01:47:57.012                             : en:Chapter 12
01:54:46.546                             : en:Chapter 13
02:10:37.163                             : en:Chapter 14
02:19:11.051                             : en:Chapter 15
02:34:22.378                             : en:Chapter 16




Скриншоты:
[+] Всего файлов в раздаче - 1:
Silence.(2016).BDRip.1080p.(qqss44).mkv7.47 GB

Показать еще раздачи по запросу молчание:
2019-06-01 U Молчание / Silencio (2018) WEB-DLRip от Portablius | HDRezka Studio 745.11 MB ↑ 53 ↓ 19
2019-05-29 U Молчание / Silencio (2018) WEB-DL 1080p | HDRezka Studio 5.50 GB ↑ 143 ↓ 143
2019-05-25 U Молчание / The Silence (2019) WEB-DLRip-AVC от OlLanDGroup | D 1.46 GB ↑ 108 ↓ 17
2019-04-12 U Молчание / The Silence (2019) WEBRip 720p | D 3.35 GB ↑ 106 ↓ 32
2019-04-11 U Молчание / The Silence (2019) WEB-DL 1080p от селезень | D 2.33 GB ↑ 272 ↓ 33
2019-04-10 U Молчание / The Silence (2019) WEB-DLRip от Dalemake | SDI Media 1.46 GB ↑ 525 ↓ 215
2019-04-09 U Молчание доктора Ивенса (1973) TVRip-AVC 1.43 GB ↑ 44 ↓ 9

Отзывы
Зарегистрируйтесь чтобы добавить комментарий.
Обратная связь
Copyleft ©