torrent.by
Поиск
Логин: Регистрация
Пароль: Восстановить пароль
Загрузка...

Однажды в России [05x01-06] (2017) WEB-DLRip от OlLanDGroup

 ↓  Скачать odnazhdy-v-rossii-05x01-06-2017-web-dlrip-ot-ollandgroup.torrent
U Магнитная ссылка Размер: 3.86 GB Раздают: 272 Качают: 544 Добавлен: 2017-05-22 17:59:43
Однажды в России [05x01-06] (2017) WEB-DLRip от OlLanDGroup

Оригинальное название: Однажды в России
Год выхода: 2017
Жанр:  ТВ-шоу, юмор
Выпущено: Россия, ТНТ, Comedy Club Production
В ролях:Игорь Ласточкин, Ирина Чеснокова, Михаил Стогниенко, Давид Цаллаев, Заур Байцаев, Теймураз Тания, Екатерина Моргунова, Максим Киселёв, Денис Дорохов, Александр Пташенчук, Азамат Мусагалиев, Ольга Картункова

Описание фильма:
Самое острое сатирическое шоу на отечественном телевидении возвращается с новыми выпусками. Все, что нужно знать о России и чего никогда не покажут в новостях. Московский ОМОН ловит в центре столицы покемонов, российские ученые впервые в мире провели операцию по пересадке сознания, в России снимут адаптацию сериала «Игры престолов» и откроют филиал школы магов Хогвардс. Все это и многое другое в новых выпусках «Однажды в России», — шоу, сделанном на невероятном для российского телевидения техническом уровне, и продолжающем традицию сатиры и социального юмора на ТНТ.

Информация о файле:
Качество: WEB-DLRip
Свойства видео: 704x400 (16:9), 25 fps, XviD, 1700 Kbps, 0.213 bit/pixel
Свойства аудио: 48,0 kHz, Audio Coding 3, 2 ch, ~192 kbps avg

Продолжительность: 6 х ~ 00:50:00
Язык: Русский

Релиз:   Rip by:
[+] Инфо файл
Общее
Полное имя                               : D:ВидеоOdnazhdy.v.Rossii 5.2017.WEB-DLRip.OlLanDGroupOdnazhdy.v.Rossii 5.s02.2017.WEB-DLRip.OlLanDGroup.avi
Формат                                   : AVI
Формат/Информация                        : Audio Video Interleave
Размер файла                             : 675 Мбайт
Продолжительность                        : 49 м.
Общий поток                              : 1902 Кбит/сек
Программа кодирования                    : VirtualDubMod 1.5.10.3 | www.virtualdub-fr.org || (build 2550/release)
Библиотека кодирования                   : VirtualDubMod build 2550/release

Видео
Идентификатор                            : 0
Формат                                   : MPEG-4 Visual
Профиль формата                          : Advanced Simple@L5
Параметр BVOP формата                    : 2
Параметр QPel формата                    : Нет
Параметр GMC формата                     : Без точки перехода
Параметр матрицы формата                 : Выборочная
Идентификатор кодека                     : XVID
Идентификатор кодека/Подсказка           : XviD
Продолжительность                        : 49 м.
Битрейт                                  : 1700 Кбит/сек
Ширина                                   : 704 пикселя
Высота                                   : 400 пикселей
Соотношение сторон                       : 16:9
Частота кадров                           : 25,000 кадров/сек
Цветовое пространство                    : YUV
Субдискретизация насыщенности            : 4:2:0
Битовая глубина                          : 8 бит
Тип развёртки                            : Прогрессивная
Метод сжатия                             : С потерями
Бит/(Пиксели*Кадры)                      : 0.241
Размер потока                            : 603 Мбайт (89%)
Библиотека кодирования                   : XviD 73

Аудио
Идентификатор                            : 1
Формат                                   : AC-3
Формат/Информация                        : Audio Coding 3
Расширение режима                        : CM (complete main)
Параметр Endianness формата              : Big
Идентификатор кодека                     : 2000
Продолжительность                        : 49 м.
Вид битрейта                             : Постоянный
Битрейт                                  : 192 Кбит/сек
Каналы                                   : 2 канала
Расположение каналов                     : Front: L R
Частота                                  : 44,1 КГц
Битовая глубина                          : 16 бит
Метод сжатия                             : С потерями
Размер потока                            : 68,1 Мбайт (10%)
Выравнивание                             : Разделение по промежуткам
Продолжительность промежутка             : 40  мс. (1,00 видеокадр)
Время предзагрузки промежутка            : 500  мс.



Скриншоты:
[+] Всего файлов в раздаче - 6:
Odnazhdy.v.Rossii 5.s01.2017.WEB-DLRip.OlLanDGroup.avi674.60 MB
Odnazhdy.v.Rossii 5.s02.2017.WEB-DLRip.OlLanDGroup..avi646.95 MB
Odnazhdy.v.Rossii 5.seriya 03.2017.WEB-DLRip.OlLanDGroup..avi641.46 MB
Odnazhdy.v.Rossii 5.seriya 04.2017.WEB-DLRip.OlLanDGroup..avi664.62 MB
Odnazhdy.v.Rossii 5.seriya 05.2017.WEB-DLRip.OlLanDGroup..avi666.45 MB
Odnazhdy.v.Rossii 5.seriya 06.2017.WEB-DLRip.OlLanDGroup..avi659.99 MB

Текущая раздача:
ДатаКомментарии    РазмерПиры
2017-05-22  ↓  Однажды в России [05x01-06] (2017) WEB-DLRip от OlLanDGroup 3.86 GB ↑ 272 ↓ 544

Показать ещё раздачи по запросу - однажды:
2017-06-05  ↓  Однажды в Германии / Es war einmal in Deutschland... (2017) WEB-DLRip от MegaPeer | iTunes 745.48 MB ↑ 122 ↓ 64
2017-06-05  ↓  Однажды в Германии / Es war einmal in Deutschland... (2017) WEB-DLRip от MegaPeer | iTunes 1.46 GB ↑ 229 ↓ 79
2017-06-05  ↓  Однажды в Германии / Es war einmal in Deutschland... (2017) WEB-DL 720р | iTunes 3.23 GB ↑ 68 ↓ 65
2017-06-05  ↓  Однажды в сказке / Once Upon a Time [S06] (2016) WEB-DLRip | Невафильм 10.76 GB ↑ 35 ↓ 77
2017-06-05  ↓  Однажды в Германии / Es war einmal in Deutschland... (2017) WEB-DL 1080р | iTunes 4.03 GB ↑ 170 ↓ 150
2017-06-05  ↓  Однажды в Германии / Es war einmal in Deutschland... (2017) WEB-DLRip | iTunes 1.46 GB ↑ 271 ↓ 212
2016-08-22  ↓  Однажды ночью / The Night Of [01x01-07 из 08] (2016) HDTV 720p от qqss44 | Amedia 7.08 GB ↑ 218 ↓ 672

Отзывы
Зарегистрируйтесь чтобы добавить комментарий.
Обратная связь