torrent.by
Поиск
Логин: Регистрация
Пароль: Восстановить пароль
Загрузка...

Новый Comedy Club [эфир от 26.05] (2017) WEB-DLRip 720p от OlLanDGroup

 ↓  Скачать novyy-comedy-club-efir-ot-26-05-2017-web-dlrip-720p-ollandgroup.torrent
U Магнитная ссылка Размер: 1.30 GB Раздают: 558 Качают: 129 Добавлен: 2017-05-27 11:06:56
Новый Comedy Club [эфир от 26.05] (2017) WEB-DLRip 720p от OlLanDGroup

Оригинальное название: Comedy Club
Жанр:  Юмористическое шоу
Дата выхода в эфир: 26.05.2017
Режиссер: Гарик Мартиросян
Ведущие: Гарик Харламов, Павел Воля
В ролях: Сергей Светлаков, Семен Слепаков, Группа USB - United Sexy Boys, Сергей Гореликов, Павел Воля, Тимур Батрутдинов, Виктор Васильев и Дмитрий Хрусталев, Дуэт «Рома и Леша», Зураб Матуа, Андрей Аверин, Дмитрий «Люсёк» Сорокин, Александр Незлобин и Элвис

Описание: На ТНТ стартует новый сезон Comedy Club. Отныне каждый выпуск шоу будет посвящен определенной тематике: мир моды и кино, День космонавтики, 1 апреля, 8 марта и даже выпуск целиком посвященный дню рождения одного из резидентов. Не пропусти! Самое популярное комедийное шоу на российском телевидении возвращается с абсолютно новой программой.

Выпущено: ТНТ, "Comedy Club Production"
Продолжительность: 00:48:12
Язык: Русский

Файл
Кодек: AVC
Качество: WEB-DLRip 720p
Видео: x264, 3509 Кбит/с, 1280x720
Аудио: AC3, 2 ch, 192 Кбит/с

Релиз:
[+] Инфо файл
Общее
Уникальный идентификатор                 : 202934388516054950660183777491638569068 (0x98ABBDD6CDD0705EB686C123F464486C)
Полное имя                               : D:ВидеоComedy Club (26.05.2017)WEB-DL 720p by OlLanDGroup.mkv
Формат                                   : Matroska
Версия формата                           : Version 4 / Version 2
Размер файла                             : 1,30 Гбайт
Продолжительность                        : 49 м.
Общий поток                              : 3776 Кбит/сек
Дата кодирования                         : UTC 2017-05-26 20:42:18
Программа кодирования                    : mkvmerge v12.0.0 ('Trust / Lust') 64bit
Библиотека кодирования                   : libebml v1.3.4 + libmatroska v1.4.5
DURATION                                 : 00:49:16.160000000
NUMBER_OF_FRAMES                         : 92380
NUMBER_OF_BYTES                          : 70947840
_STATISTICS_WRITING_APP                  : mkvmerge v12.0.0 ('Trust / Lust') 64bit
_STATISTICS_WRITING_DATE_UTC             : 2017-05-26 20:42:18
_STATISTICS_TAGS                         : BPS DURATION NUMBER_OF_FRAMES NUMBER_OF_BYTES

Видео
Идентификатор                            : 1
Формат                                   : AVC
Формат/Информация                        : Advanced Video Codec
Профиль формата                          : High@L3.1
Параметр CABAC формата                   : Да
Параметр ReFrames формата                : 1 кадр
Параметр GOP формата                     : M=1, N=12
Идентификатор кодека                     : V_MPEG4/ISO/AVC
Продолжительность                        : 49 м.
Битрейт                                  : 3509 Кбит/сек
Ширина                                   : 1280 пикселей
Высота                                   : 720 пикселей
Соотношение сторон                       : 16:9
Режим частоты кадров                     : Постоянный
Частота кадров                           : 25,000 кадров/сек
Стандарт вещания                         : Component
Цветовое пространство                    : YUV
Субдискретизация насыщенности            : 4:2:0
Битовая глубина                          : 8 бит
Тип развёртки                            : Прогрессивная
Бит/(Пиксели*Кадры)                      : 0.152
Размер потока                            : 1,21 Гбайт (93%)
Язык                                     : Russian
Default                                  : Да
Forced                                   : Нет

Аудио
Идентификатор                            : 2
Формат                                   : AC-3
Формат/Информация                        : Audio Coding 3
Расширение режима                        : CM (complete main)
Параметр Endianness формата              : Big
Идентификатор кодека                     : A_AC3
Продолжительность                        : 49 м.
Вид битрейта                             : Постоянный
Битрейт                                  : 192 Кбит/сек
Каналы                                   : 2 канала
Расположение каналов                     : Front: L R
Частота                                  : 48,0 КГц
Битовая глубина                          : 16 бит
Метод сжатия                             : С потерями
Размер потока                            : 67,7 Мбайт (5%)
Язык                                     : Russian
Default                                  : Да
Forced                                   : Нет




Скриншоты:
[+] Всего файлов в раздаче - 1:
Comedy Club (26.05.2017)WEB-DL 720p by OlLanDGroup.mkv1.30 GB

Текущая раздача:
ДатаКомментарии    РазмерПиры
2017-05-27  ↓  Новый Comedy Club [эфир от 26.05] (2017) WEB-DLRip 720p от OlLanDGroup 1.30 GB ↑ 558 ↓ 129

Показать ещё раздачи по запросу - новый:
2017-08-21  ↓  Новый Comedy Club. Дайджест. Мистический [от 18.08] (2017) WEB-DL 720p от OlLanDGroup 1.21 GB ↑ 127 ↓ 60
2017-08-21  ↓  Новый Comedy Club. Дайджест. Мистический [от 18.08] (2017) WEB-DLRip от OlLanDGroup 646.36 MB ↑ 147 ↓ 57
2017-08-06  ↓  Новый Comedy Club. Дайджест. Hip-hop [от 04.08] (2017) WEB-DLRip от OlLanDGroup 616.81 MB ↑ 139 ↓ 58
2017-08-06  ↓  Новый Comedy Club. Дайджест. Hip-hop [от 04.08] (2017) WEB-DL 720p от OlLanDGroup 1.18 GB ↑ 231 ↓ 61
2017-07-30  ↓  Новый Comedy Club. Дайджест. Motors [от 28.07] (2017) WEB-DLRip от OlLanDGroup 630.10 MB ↑ 199 ↓ 59
2017-07-30  ↓  Новый Comedy Club. Дайджест. Motors [от 28.07] (2017) WEB-DL 720p от OlLanDGroup 1.22 GB ↑ 261 ↓ 93
2017-07-23  ↓  Новый Comedy Club. Дайджест.Харламеди [от 21.07] (2017) WEB-DLRip от OlLanDGroup 636.46 MB ↑ 195 ↓ 107

Отзывы
Зарегистрируйтесь чтобы добавить комментарий.
Обратная связь