↑↓torrent.by
Поиск
Логин: Регистрация
Пароль: Восстановить пароль

Кроваво-красное небо / Blood Red Sky (2021) WEB-DL-HEVC 1080p | Netflix

Скачать krovavo-krasnoe-nebo-blood-red-sky-2021-web-dl-hevc-1080p-netflix.torrent
U Магнитная ссылка Размер: 5.84 GB Раздают: 256 Качают: 248 Добавлен: 2021-07-23 18:08:35
Кроваво-красное небо / Blood Red Sky (2021) WEB-DL-HEVC 1080p | Netflix

Кроваво-красное небо / Blood Red Sky

Страна: Германия, США
Год выпуска: 2021
Жанр:  ужасы, боевик
Продолжительность: 02:03:06

Перевод: Профессиональный (дублированный) | SDI Media по заказу Netflix

Режиссёр: Петер Торварт
В ролях: Пери Баумайстер, Грэм МакТавиш, Роланд Мёллер, Доминик Пёрселл, Александр Шеер, Карл Антон Кох, Чиди Аджуфо, Ребекка Дайсон-Смит, Гордон Браун, Рой МакКрири, Ребекка Дайсон-Смит, Гордон Браун, Рой МакКрири, Каис Сетти

Описание: Надя и её десятилетний сын летят ночным рейсом из Германии в Нью-Йорк, но их самолёт внезапно захватывает группа террористов, которая грозится убить пассажиров. Надя встаёт перед выбором: продолжать ли скрывать свою тёмную сторону или выпустить монстра на свободу ради спасения сына?

Качество: WEB-DL 1080p
Контейнер: MKV
Видео: HEVC 10 bit, 1920x1080 (16:9), 25 fps, ~5121 kbps
Аудио №1:  AC3, 48 kHz, 6 ch, 384 kbps
Аудио №2:  E-AC3, 48 kHz, 6 ch, 640 kbps
Аудио №3:  E-AC3, 48 kHz, 6 ch, 640 kbps
Субтитры: Русские (Forced, Full), немецкие (Forced, SDH), английские, румынские, украинские
Реклама: Отсутствует

Релиз: EniaHD


[+] MediaInfo
General
Unique ID                      : 184669509424085231165571136890880226258 (0x8AEE0DC5EFA1F03FB5DF5C7AA5DD73D2)
Complete name                  : Blood.Red.Sky.2021.1080p.NF.WEB-DL.DD5.1.HEVC-EniaHD.mkv
Format                         : Matroska
Format version                 : Version 4
File size                      : 5.84 GiB
Duration                       : 2 h 3 min
Overall bit rate               : 6 788 kb/s
Movie name                     : Blood Red Sky (2021) - EniaHD
Encoded date                   : UTC 2021-07-23 07:07:09
Writing application            : mkvmerge v57.0.0 ('Till The End') 64-bit
Writing library                : libebml v1.4.2 + libmatroska v1.6.4

Video
ID                             : 1
Format                         : HEVC
Format/Info                    : High Efficiency Video Coding
Format profile                 : Main 10@L4@Main
Codec ID                       : V_MPEGH/ISO/HEVC
Duration                       : 2 h 3 min
Bit rate                       : 5 121 kb/s
Width                          : 1 920 pixels
Height                         : 1 080 pixels
Display aspect ratio           : 16:9
Frame rate mode                : Constant
Frame rate                     : 25.000 FPS
Color space                    : YUV
Chroma subsampling             : 4:2:0
Bit depth                      : 10 bits
Bits/(Pixel*Frame)             : 0.099
Stream size                    : 4.40 GiB (75%)
Default                        : Yes
Forced                         : No
Color range                    : Limited
Color primaries                : BT.709
Transfer characteristics       : BT.709
Matrix coefficients            : BT.709

Audio #1
ID                             : 2
Format                         : AC-3
Format/Info                    : Audio Coding 3
Commercial name                : Dolby Digital
Codec ID                       : A_AC3
Duration                       : 2 h 3 min
Bit rate mode                  : Constant
Bit rate                       : 384 kb/s
Channel(s)                     : 6 channels
Channel layout                 : L R C LFE Ls Rs
Sampling rate                  : 48.0 kHz
Frame rate                     : 31.250 FPS (1536 SPF)
Compression mode               : Lossy
Stream size                    : 338 MiB (6%)
Title                          : AC3
Language                       : Russian
Service kind                   : Complete Main
Default                        : Yes
Forced                         : No

Audio #2
ID                             : 3
Format                         : E-AC-3
Format/Info                    : Enhanced AC-3
Commercial name                : Dolby Digital Plus
Codec ID                       : A_EAC3
Duration                       : 2 h 3 min
Bit rate mode                  : Constant
Bit rate                       : 640 kb/s
Channel(s)                     : 6 channels
Channel layout                 : L R C LFE Ls Rs
Sampling rate                  : 48.0 kHz
Frame rate                     : 31.250 FPS (1536 SPF)
Compression mode               : Lossy
Stream size                    : 564 MiB (9%)
Title                          : E-AC3
Language                       : Russian
Service kind                   : Complete Main
Default                        : No
Forced                         : No

Audio #3
ID                             : 4
Format                         : E-AC-3
Format/Info                    : Enhanced AC-3
Commercial name                : Dolby Digital Plus
Codec ID                       : A_EAC3
Duration                       : 2 h 3 min
Bit rate mode                  : Constant
Bit rate                       : 640 kb/s
Channel(s)                     : 6 channels
Channel layout                 : L R C LFE Ls Rs
Sampling rate                  : 48.0 kHz
Frame rate                     : 31.250 FPS (1536 SPF)
Compression mode               : Lossy
Stream size                    : 564 MiB (9%)
Language                       : German
Service kind                   : Complete Main
Default                        : No
Forced                         : No

Text #1
ID                             : 5
Format                         : UTF-8
Codec ID                       : S_TEXT/UTF8
Codec ID/Info                  : UTF-8 Plain Text
Duration                       : 2 h 1 min
Bit rate                       : 1 b/s
Count of elements              : 25
Stream size                    : 1.38 KiB (0%)
Title                          : Forced
Language                       : Russian
Default                        : Yes
Forced                         : No

Text #2
ID                             : 6
Format                         : UTF-8
Codec ID                       : S_TEXT/UTF8
Codec ID/Info                  : UTF-8 Plain Text
Duration                       : 2 h 1 min
Bit rate                       : 46 b/s
Count of elements              : 987
Stream size                    : 41.7 KiB (0%)
Language                       : Russian
Default                        : No
Forced                         : No

Text #3
ID                             : 7
Format                         : UTF-8
Codec ID                       : S_TEXT/UTF8
Codec ID/Info                  : UTF-8 Plain Text
Duration                       : 1 h 59 min
Bit rate                       : 3 b/s
Count of elements              : 68
Stream size                    : 2.96 KiB (0%)
Title                          : Forced
Language                       : German
Default                        : No
Forced                         : No

Text #4
ID                             : 8
Format                         : UTF-8
Codec ID                       : S_TEXT/UTF8
Codec ID/Info                  : UTF-8 Plain Text
Duration                       : 2 h 0 min
Bit rate                       : 40 b/s
Count of elements              : 1230
Stream size                    : 35.9 KiB (0%)
Language                       : German
Default                        : No
Forced                         : No

Text #5
ID                             : 9
Format                         : UTF-8
Codec ID                       : S_TEXT/UTF8
Codec ID/Info                  : UTF-8 Plain Text
Duration                       : 1 h 51 min
Bit rate                       : 12 b/s
Count of elements              : 379
Stream size                    : 10.3 KiB (0%)
Language                       : English
Default                        : No
Forced                         : No

Text #6
ID                             : 10
Format                         : UTF-8
Codec ID                       : S_TEXT/UTF8
Codec ID/Info                  : UTF-8 Plain Text
Duration                       : 2 h 1 min
Bit rate                       : 29 b/s
Count of elements              : 961
Stream size                    : 26.2 KiB (0%)
Language                       : Romanian
Default                        : No
Forced                         : No

Text #7
ID                             : 11
Format                         : UTF-8
Codec ID                       : S_TEXT/UTF8
Codec ID/Info                  : UTF-8 Plain Text
Duration                       : 2 h 1 min
Bit rate                       : 46 b/s
Count of elements              : 985
Stream size                    : 40.9 KiB (0%)
Language                       : Ukrainian
Default                        : No
Forced                         : No



Скриншоты:
[+] Всего файлов в раздаче - 1:

Похожие раздачи по запросу - кроваво:
2021-07-27 U Кроваво-красное небо / Blood Red Sky (2021) WEB-DLRip | КПК | D 500.46 MB ↑ 230 ↓ 22
2021-07-23 U Кроваво-красное небо / Blood Red Sky (2021) WEB-DLRip от Twister & ExKinoRay | Netflix 1.46 GB ↑ 201 ↓ 29
2021-07-23 U Кроваво-красное небо / Blood Red Sky (2021) WEB-DL 1080p от селезень | Netflix 2.77 GB ↑ 176 ↓ 55

Отзывы
Зарегистрируйтесь чтобы добавить комментарий.
Торрент клиент
byTorrent - программа для загрузки торрент-файлов.

Скачать byTorrent


Поддержи torrent.by
российских рублей
(300 российских рублей это 4$)

Обратная связь rss
End ©