↑↓Torrent.by
Поиск
Логин: Регистрация
Пароль: Восстановить пароль
Загрузка...

Кухня. Последняя битва (2017) BDRip-AVC от ExKinoRay | Лицензия

Скачать kuhnya-poslednyaya-bitva-2017-bdrip-avc-ot-exkinoray-licenziya.torrent
U Магнитная ссылка Размер: 2.42 GB Раздают: 89 Качают: 26 Добавлен: 2017-07-10 06:49:05
Кухня. Последняя битва (2017) BDRip-AVC от ExKinoRay | Лицензия

Оригинальное название: Кухня. Последняя битва
Год выпуска: 2017
Жанр:  Комедия
Режиссер: Антон Федотов
В ролях: Дмитрий Нагиев, Дмитрий Назаров, Сергей Лавыгин, Олег Табаков, Анфиса Черных, Кирилл Ковбас, Сергей Епишев, Никита Тарасов, Михаил Тарабукин, Михаил Башкатов

Описание:  
Виктору Баринову по личной просьбе Президента России предстоит отправиться в Сочи на чемпионат мира среди профессиональных поваров и доказать, что он и его команда лучшие в мире! В тяжелой борьбе за звание победителя Шефу будет помогать «тёмная лошадка» — его родной сын Иван, о котором он неожиданно узнал накануне чемпионата.

Выпущено: Россия, Фонд кино, Forever Films, Yellow, Black & White
Продолжительность: 01:54:27
Язык: Русский | Лицензия

Файл
Формат: MKV
Качество: BDRip-AVC
Видео: MPEG-4 AVC, 1024x428 (2.40:1), ~ 2577 kbps avg, 24.000 FPS, 0.245 bit/pixel
Аудио: AC-3, 48.0 KHz, 5.1 ch, 448 Kbps, CBR (Russian)

Без какой-либо рекламы

Релиз:

Автор релиза:


[+] МИ
x264 [info]: frame I:2147  Avg QP:15.89  size: 75736
x264 [info]: frame P:42696 Avg QP:19.31  size: 25272
x264 [info]: frame B:119968 Avg QP:21.15  size:  8075
x264 [info]: consecutive B-frames:  3.9%  4.9% 13.1% 37.6% 17.8% 17.3%  3.1%  0.9%  0.7%  0.4%  0.4%
-----------------------------------------------------------------
General
Unique ID                                : 236531228585342297741548543848363708214 (0xB1F241F18497A6C5B6AD700E5385CF36)
Complete name                            : D:Kukhnya.Poslednyaya.bitva.2017.BDRip.AVC.ExKinoRay.mkv
Format                                   : Matroska
Format version                           : Version 2
File size                                : 2.42 GiB
Duration                                 : 1 h 54 min
Overall bit rate                         : 3 025 kb/s
Movie name                               : Кухня (2017) from ExKinoRay
Encoded date                             : UTC 2017-07-08 13:55:04
Writing application                      : mkvmerge v5.6.0 ('Kenya Kane') built on May 27 2012 16:44:04
Writing library                          : libebml v1.2.3 + libmatroska v1.3.0

Video
ID                                       : 1
Format                                   : AVC
Format/Info                              : Advanced Video Codec
Format profile                           : High@L4.1
Format settings, CABAC                   : Yes
Format settings, ReFrames                : 12 frames
Codec ID                                 : V_MPEG4/ISO/AVC
Duration                                 : 1 h 54 min
Bit rate                                 : 2 577 kb/s
Width                                    : 1 024 pixels
Height                                   : 428 pixels
Display aspect ratio                     : 2.40:1
Frame rate mode                          : Constant
Frame rate                               : 24.000 FPS
Color space                              : YUV
Chroma subsampling                       : 4:2:0
Bit depth                                : 8 bits
Scan type                                : Progressive
Bits/(Pixel*Frame)                       : 0.245
Stream size                              : 2.01 GiB (83%)
Title                                    : Enigma
Writing library                          : x264 core 144 r2525 40bb568
Encoding settings                        : cabac=1 / ref=12 / deblock=1:-2:-2 / analyse=0x3:0x113 / me=umh / subme=10 / psy=1 / psy_rd=0.96:0.04 / mixed_ref=1 / me_range=48 / chroma_me=1 / trellis=2 / 8x8dct=1 / cqm=0 / deadzone=21,11 / fast_pskip=1 / chroma_qp_offset=-3 / threads=12 / lookahead_threads=3 / sliced_threads=0 / nr=0 / decimate=0 / interlaced=0 / bluray_compat=0 / constrained_intra=0 / bframes=10 / b_pyramid=2 / b_adapt=2 / b_bias=0 / direct=3 / weightb=1 / open_gop=0 / weightp=2 / keyint=240 / keyint_min=24 / scenecut=40 / intra_refresh=0 / rc_lookahead=40 / rc=2pass / mbtree=0 / bitrate=2577 / ratetol=1.0 / qcomp=0.63 / qpmin=0 / qpmax=51 / qpstep=4 / cplxblur=20.0 / qblur=0.5 / vbv_maxrate=50000 / vbv_bufsize=62500 / nal_hrd=none / filler=0 / ip_ratio=1.40 / pb_ratio=1.30 / aq=1:1.00
Language                                 : English
Default                                  : Yes
Forced                                   : No
Color range                              : Limited
Color primaries                          : BT.709
Transfer characteristics                 : BT.709
Matrix coefficients                      : BT.709

Audio
ID                                       : 2
Format                                   : AC-3
Format/Info                              : Audio Coding 3
Mode extension                           : CM (complete main)
Format settings, Endianness              : Big
Codec ID                                 : A_AC3
Duration                                 : 1 h 54 min
Bit rate mode                            : Constant
Bit rate                                 : 448 kb/s
Channel(s)                               : 6 channels
Channel positions                        : Front: L C R, Side: L R, LFE
Sampling rate                            : 48.0 kHz
Frame rate                               : 31.250 FPS (1536 spf)
Compression mode                         : Lossy
Stream size                              : 367 MiB (15%)
Title                                    : Лицензия
Language                                 : Russian
Default                                  : Yes
Forced                                   : No

Menu
00:00:00.000                             : :Chapter 01
00:00:39.208                             : :Chapter 02
00:10:56.000                             : :Chapter 03
00:24:09.000                             : :Chapter 04
00:36:06.833                             : :Chapter 05
00:48:49.625                             : :Chapter 06
01:02:26.625                             : :Chapter 07
01:20:13.333                             : :Chapter 08
01:33:18.125                             : :Chapter 09



Скриншоты:
[+] Всего файлов в раздаче - 1:
Kukhnya.Poslednyaya.bitva.2017.BDRip.AVC.ExKinoRay.mkv2.42 GB

Текущая раздача:
ДатаКомментарии    РазмерПиры
2017-07-10 U Кухня. Последняя битва (2017) BDRip-AVC от ExKinoRay | Лицензия 2.42 GB ↑ 89 ↓ 26

Показать еще раздачи по запросу кухня:
Вчера U Наталия Попович - Домашняя кухня на каждый день. Кулинарный ежедневник (2017) FB2 1.62 MB ↑ 61 ↓ 2
2017-12-04 U Кухня. Последняя битва (2017) DVB | Open Matte 2.38 GB ↑ 98 ↓ 13
2017-06-19 U Кухня. Последняя битва (2017) HDRip от Scarabey | Лицензия 1.45 GB ↑ 557 ↓ 79
2017-06-17 U Кухня. Последняя битва (2017) BDRip 1080p от OlLanDGroup | Лицензия 9.41 GB ↑ 248 ↓ 125
2017-06-17 U Кухня. Последняя битва (2017) BDRip-AVC от HELLYWOOD | Лицензия 2.18 GB ↑ 283 ↓ 29
2017-06-16 U Кухня. Последняя битва (2017) BDRip от GeneralFilm | Лицензия 1.46 GB ↑ 329 ↓ 125
2017-02-27 U Кухня [01-04 из 20] (2016) WEB-DLRip-AVC от Files-x 1К1.24 GB ↑ 170 ↓ 2

Отзывы
Зарегистрируйтесь чтобы добавить комментарий.
Обратная связь
Copyleft ©