torrent.by
Поиск
Логин: Регистрация
Пароль: Восстановить пароль
Загрузка...

Не спать! [эфир от 14.07] (2017) WEB-DLRip от OlLanDGroup

 ↓  Скачать ne-spat-efir-ot-14-07-2017-web-dlrip-ollandgroup.torrent
U Магнитная ссылка Размер: 636.42 MB Раздают: 82 Качают: 24 Добавлен: 2017-07-16 11:45:12
Не спать! [эфир от 14.07] (2017) WEB-DLRip от OlLanDGroup

Оригинальное название: Не спать!
Жанр:  ТВ-шоу, юмор, импровизация
Дата выхода в эфир: 14.07.2017
Ведущий: Сергей Гореликов

Описание: Правила просты. Каждый желающий участвовать в программе платит взнос – 10 000 рублей. Эти взносы составляют призовой фонд игры. Далее участники шутят, а рефери определяют, было ли их выступление смешным. Если нет, то претендентам придется покинуть ринг. В шоу три этапа: выступление-заявка, импровизация и суперфинал. Отсев бескомпромиссный – в последний тур проходят лишь двое. Ну, а победитель получает все деньги, внесенные побежденными за участие в программе.Поскольку во время выхода шоу дети уже спят, в «Не спать!» нет никаких ограничений, табу и священных коров. Главное – быть смешным настолько, чтобы зрителям-полуночникам глядя на тебя расхотелось спать.

Выпущено: Россия, ТНТ
Продолжительность: 00:48:48
Язык: Русский

Файл
Кодек: XviD
Качество: WEB-DLRip
Видео: XviD, 1700 Кбит/с, 704x400
Аудио: AC3, 2 ch, 192 Кбит/с

Релиз:
[+] Инфо файл
Общее
Полное имя                               : D:ВидеоNe.spat.14.07.2017.WEB-DLRip.OlLanDGroup.avi
Формат                                   : AVI
Формат/Информация                        : Audio Video Interleave
Размер файла                             : 636 Мбайт
Продолжительность                        : 48 м.
Общий поток                              : 1823 Кбит/сек
Программа кодирования                    : VirtualDubMod 1.5.10.3 | www.virtualdub-fr.org || (build 2550/release)
Библиотека кодирования                   : VirtualDub build 35486/release

Видео
Идентификатор                            : 0
Формат                                   : MPEG-4 Visual
Профиль формата                          : Advanced Simple@L5
Параметр BVOP формата                    : 2
Параметр QPel формата                    : Нет
Параметр GMC формата                     : Без точки перехода
Параметр матрицы формата                 : Выборочная
Идентификатор кодека                     : XVID
Идентификатор кодека/Подсказка           : XviD
Продолжительность                        : 48 м.
Битрейт                                  : 1621 Кбит/сек
Ширина                                   : 704 пикселя
Высота                                   : 400 пикселей
Соотношение сторон                       : 16:9
Частота кадров                           : 25,000 кадров/сек
Цветовое пространство                    : YUV
Субдискретизация насыщенности            : 4:2:0
Битовая глубина                          : 8 бит
Тип развёртки                            : Прогрессивная
Метод сжатия                             : С потерями
Бит/(Пиксели*Кадры)                      : 0.230
Размер потока                            : 566 Мбайт (89%)
Библиотека кодирования                   : XviD 73

Аудио
Идентификатор                            : 1
Формат                                   : AC-3
Формат/Информация                        : Audio Coding 3
Расширение режима                        : CM (complete main)
Параметр Endianness формата              : Big
Идентификатор кодека                     : 2000
Продолжительность                        : 48 м.
Вид битрейта                             : Постоянный
Битрейт                                  : 192 Кбит/сек
Каналы                                   : 2 канала
Расположение каналов                     : Front: L R
Частота                                  : 48,0 КГц
Битовая глубина                          : 16 бит
Метод сжатия                             : С потерями
Размер потока                            : 67,0 Мбайт (11%)
Выравнивание                             : Разделение по промежуткам
Продолжительность промежутка             : 40  мс. (1,00 видеокадр)
Время предзагрузки промежутка            : 500  мс.




Скриншоты:
[+] Всего файлов в раздаче - 1:
Ne.spat.14.07.2017.WEB-DLRip.OlLanDGroup.avi636.42 MB

Текущая раздача:
ДатаКомментарии    РазмерПиры
2017-07-16  ↓  Не спать! [эфир от 14.07] (2017) WEB-DLRip от OlLanDGroup 636.42 MB ↑ 82 ↓ 24

Похожие раздачи по запросу - спать:
2017-08-05  ↓  Не спать! [Эфир от 04.08.2017] (2017) SАTRір 660.14 MB ↑ 75 ↓ 29
2017-07-23  ↓  Не спать! [эфир от 21.07] (2017) WEB-DL720p от OlLanDGroup 1.30 GB ↑ 97 ↓ 34

Отзывы
Зарегистрируйтесь чтобы добавить комментарий.
Обратная связь