torrent.by
Поиск
Логин: Регистрация
Пароль: Восстановить пароль
Загрузка...

Новый Comedy Club. Mix.Харламеди [от 21.07] (2017) WEB-DL 720p от OlLanDGroup

 ↓  Скачать novyy-comedy-club-mix-harlamedi-ot-21-07-2017-web-dl-720p-ollandgroup.torrent
U Магнитная ссылка Размер: 1.24 GB Раздают: 525 Качают: 176 Добавлен: 2017-07-23 09:30:38
Новый Comedy Club. Mix.Харламеди [от 21.07] (2017) WEB-DL 720p от OlLanDGroup

Оригинальное название: Comedy Club. Mix. Харламеди
Жанр:  Юмористическое шоу
Дата выхода в эфир: 21.07.2017
Режиссер: Гарик Мартиросян
Ведущие: Гарик Харламов, Павел Воля
В ролях: Сергей Светлаков, Семен Слепаков, Группа USB - United Sexy Boys, Сергей Гореликов, Павел Воля, Тимур Батрутдинов, Виктор Васильев и Дмитрий Хрусталев, Дуэт «Рома и Леша», Зураб Матуа, Андрей Аверин, Дмитрий «Люсёк» Сорокин, Александр Незлобин и Элвис

Описание: «Comedy Club» был создан в 2005 году командой КВН «Новые армяне», в состав которой входили Артур Джанибекян, Артак Гаспарян, Артур Тумасян, Арташес Саркисян, Гарик Мартиросян и другие. Его идея была задумана ещё в 2001 году, когда Арташес Саркисян, побывав в США, увидел местный «Comedy Club». Временами стали появляться новые участники «Comedy Club», в основном из КВН. 23 апреля 2005 года «Comedy Club» впервые вышел в эфир телеканала ТНТ. Рейтинги программы стали бить все рекорды и это приносило программе большие доходы, на которые они стали делать другие проекты. Впоследствии они создали свою продюсерскую компанию «Comedy Club Production». 15 апреля 2007 года на ТНТ был показан сотый выпуск программы. Регулярно выходят новые выпуски и другие проекты - например спецвыпуски на Первом канале, юмористические фестивали и продюсирование участниками «Comedy Club» проекты других телепередач. 23 апреля 2010 года «Comedy Club» вышло с новой музыкой и обновлённым оформлением. Также «Comedy Club» выходит на каналах ICTV, НТВ+ - Мир и Comedy TV. Как всегда, Comedy Club собрал все самое смешное, чтобы оставаться самым крутым юмористическим шоу на телевидении. Камеры готовы? Музыканты готовы? Зрители готовы? Поехали!

Выпущено: ТНТ, "Comedy Club Production"
Продолжительность: 00:48:12
Язык: Русский

Файл
Кодек: AVC
Качество: WEB-DL 720p
Видео: x264, 3509 Кбит/с, 1280x720
Аудио: AC3, 2 ch, 192 Кбит/с

Релиз:
[+] Инфо файл
Общее
Уникальный идентификатор                 : 194843444381790773858176081970367609276 (0x92957B7E951778928FDCD47FDB64B9BC)
Полное имя                               : D:ВидеоComedy Club. Mix.Харламеди(21.07.2017)WEB-DL720p by OlLanDGroup.mkv
Формат                                   : Matroska
Версия формата                           : Version 4 / Version 2
Размер файла                             : 1,24 Гбайт
Продолжительность                        : 46 м.
Общий поток                              : 3781 Кбит/сек
Дата кодирования                         : UTC 2017-07-22 16:24:10
Программа кодирования                    : mkvmerge v13.0.0 ('The Juggler') 64bit
Библиотека кодирования                   : libebml v1.3.4 + libmatroska v1.4.5
DURATION                                 : 00:46:47.744000000
NUMBER_OF_FRAMES                         : 87742
NUMBER_OF_BYTES                          : 67385856
_STATISTICS_WRITING_APP                  : mkvmerge v13.0.0 ('The Juggler') 64bit
_STATISTICS_WRITING_DATE_UTC             : 2017-07-22 16:24:10
_STATISTICS_TAGS                         : BPS DURATION NUMBER_OF_FRAMES NUMBER_OF_BYTES
Attachment                               : Yes

Видео
Идентификатор                            : 1
Формат                                   : AVC
Формат/Информация                        : Advanced Video Codec
Профиль формата                          : High@L3.1
Параметр CABAC формата                   : Да
Параметр ReFrames формата                : 1 кадр
Параметр GOP формата                     : M=1, N=12
Идентификатор кодека                     : V_MPEG4/ISO/AVC
Продолжительность                        : 46 м.
Битрейт                                  : 3514 Кбит/сек
Ширина                                   : 1280 пикселей
Высота                                   : 720 пикселей
Соотношение сторон                       : 16:9
Режим частоты кадров                     : Постоянный
Частота кадров                           : 25,000 кадров/сек
Стандарт вещания                         : Component
Цветовое пространство                    : YUV
Субдискретизация насыщенности            : 4:2:0
Битовая глубина                          : 8 бит
Тип развёртки                            : Прогрессивная
Бит/(Пиксели*Кадры)                      : 0.153
Размер потока                            : 1,15 Гбайт (93%)
Default                                  : Да
Forced                                   : Нет

Аудио
Идентификатор                            : 2
Формат                                   : AC-3
Формат/Информация                        : Audio Coding 3
Расширение режима                        : CM (complete main)
Параметр Endianness формата              : Big
Идентификатор кодека                     : A_AC3
Продолжительность                        : 46 м.
Вид битрейта                             : Постоянный
Битрейт                                  : 192 Кбит/сек
Каналы                                   : 2 канала
Расположение каналов                     : Front: L R
Частота                                  : 48,0 КГц
Битовая глубина                          : 16 бит
Метод сжатия                             : С потерями
Размер потока                            : 64,3 Мбайт (5%)
Default                                  : Да
Forced                                   : Нет




Скриншоты:
[+] Всего файлов в раздаче - 1:
Comedy Club. Mix.Харламеди(21.07.2017)WEB-DL720p by OlLanDGroup.mkv1.24 GB

Текущая раздача:
ДатаКомментарии    РазмерПиры
2017-07-23  ↓  Новый Comedy Club. Mix.Харламеди [от 21.07] (2017) WEB-DL 720p от OlLanDGroup 1.24 GB ↑ 525 ↓ 176

Показать ещё раздачи по запросу - новый:
2017-08-21  ↓  Новый Comedy Club. Дайджест. Мистический [от 18.08] (2017) WEB-DL 720p от OlLanDGroup 1.21 GB ↑ 127 ↓ 60
2017-08-21  ↓  Новый Comedy Club. Дайджест. Мистический [от 18.08] (2017) WEB-DLRip от OlLanDGroup 646.36 MB ↑ 147 ↓ 57
2017-08-06  ↓  Новый Comedy Club. Дайджест. Hip-hop [от 04.08] (2017) WEB-DLRip от OlLanDGroup 616.81 MB ↑ 139 ↓ 58
2017-08-06  ↓  Новый Comedy Club. Дайджест. Hip-hop [от 04.08] (2017) WEB-DL 720p от OlLanDGroup 1.18 GB ↑ 231 ↓ 61
2017-07-30  ↓  Новый Comedy Club. Дайджест. Motors [от 28.07] (2017) WEB-DLRip от OlLanDGroup 630.10 MB ↑ 199 ↓ 59
2017-07-30  ↓  Новый Comedy Club. Дайджест. Motors [от 28.07] (2017) WEB-DL 720p от OlLanDGroup 1.22 GB ↑ 261 ↓ 93
2017-07-23  ↓  Новый Comedy Club. Дайджест.Харламеди [от 21.07] (2017) WEB-DLRip от OlLanDGroup 636.46 MB ↑ 195 ↓ 107

Отзывы
Зарегистрируйтесь чтобы добавить комментарий.
Обратная связь