torrent.by
Поиск
Логин: Регистрация
Пароль: Восстановить пароль
Загрузка...

Меч короля Артура / King Arthur: Legend of the Sword (2017) BDRip 1080p от New-Team & qqss44 | iTunes

 ↓  Скачать mech-korolya-artura-king-arthur-legend-of-the-sword-2017-bdrip-1080p-ot-new-team-qqss44-itunes.torrent
U Магнитная ссылка Размер: 7.53 GB Раздают: 360 Качают: 311 Добавлен: 2017-07-27 17:39:21
Меч короля Артура / King Arthur: Legend of the Sword (2017) BDRip 1080p от New-Team & qqss44 | iTunes

Мы "В КОНТАКТЕ"

Информация о фильме
Название: Меч короля Артура
Оригинальное название: King Arthur: Legend of the Sword
Год выпуска: 2017
Жанр: Фэнтези, боевик, драма, приключения
Режиссер: Гай Ричи
В ролях: Чарли Ханнэм, Астрид Берже-Фрисби, Джуд Лоу, Джимон Хонсу, Эрик Бана, Эйден Гиллен, Фредди Фокс, Крэйг МакГинли, Том Ву, Кингсли Бен-Адир

О фильме:
Молодой Артур живёт на задворках Лондиниума вместе со своей бандой. Он и понятия не имел о своём королевском происхождении, пока однажды не взял в руки меч Эскалибур. Меч начинает менять Артура. В результате он присоединяется к сопротивлению и таинственной молодой девушке по имени Гвиневра. Ему предстоит научиться понимать магическое оружие, которым он овладел, столкнуться со своими собственными демонами и объединить народ в борьбе против диктатора Вортигерна, убившего его родителей и завладевшего короной.

Страна: США
Студия: Safehouse Pictures, Village Roadshow Pictures, Warner Bros. Pictures, Weed Road Pictures, Wigram Productions
Продолжительность: 02:06:13
Перевод: Дублированный | iTunes

Файл
Формат: MKV, BDRip 1080p
Видео: MPEG-4 AVC, 7500 Кбит/с, 1920x800
Aудио#1: [RUS] AC3 | 48 KHz | 5.1 (Front: L С R Side: L R) + LFE | ~384 kbps
Aудио#2: [ENG] AC3 | 48 KHz | 5.1 (Front: L С R Side: L R) + LFE | ~640 kbps
Субтитры: русские (форсированные и полные), английские (полные)
Релиз от:


[+] МИ

Общее
Уникальный идентификатор                 : 198659754079507283487989562512030057868 (0x95747A16F240AC5D98B0D5D519B4458C)
Полное имя                               : X:�0000King.Arthur.Legend.of.the.Sword.(2017).BDRip.1080p.(qqss44).mkv
Формат                                   : Matroska
Версия формата                           : Version 2
Размер файла                             : 7,53 Гбайт
Продолжительность                        : 2 ч. 6 м.
Общий поток                              : 8540 Кбит/сек
Название фильма                          : King.Arthur.Legend.of.the.Sword.(2017).BDRip.1080p.(qqss44)
Дата кодирования                         : UTC 2017-07-27 07:32:28
Программа кодирования                    : mkvmerge v5.8.0 ('No Sleep / Pillow') built on Sep  2 2012 15:37:04
Библиотека кодирования                   : libebml v1.2.3 + libmatroska v1.3.0

Видео
Идентификатор                            : 1
Формат                                   : AVC
Формат/Информация                        : Advanced Video Codec
Профиль формата                          : High@L4.1
Параметр CABAC формата                   : Да
Параметр ReFrames формата                : 5 кадров
Идентификатор кодека                     : V_MPEG4/ISO/AVC
Продолжительность                        : 2 ч. 6 м.
Битрейт                                  : 7520 Кбит/сек
Ширина                                   : 1920 пикселей
Высота                                   : 800 пикселей
Соотношение сторон                       : 2,40:1
Режим частоты кадров                     : Постоянный
Частота кадров                           : 23,976 (24000/1001) кадра/сек
Цветовое пространство                    : YUV
Субдискретизация насыщенности            : 4:2:0
Битовая глубина                          : 8 бит
Тип развёртки                            : Прогрессивная
Бит/(Пиксели*Кадры)                      : 0.204
Размер потока                            : 6,48 Гбайт (86%)
Библиотека кодирования                   : x264 core 152 r2851kMod ba24899
Настройки программы                      : cabac=1 / ref=5 / deblock=1:-1:-1 / analyse=0x3:0x113 / me=umh / subme=11 / psy=1 / fade_compensate=0.00 / psy_rd=1.00:0.00 / mixed_ref=1 / me_range=32 / chroma_me=1 / trellis=2 / 8x8dct=1 / cqm=0 / deadzone=21,11 / fast_pskip=0 / chroma_qp_offset=-2 / threads=12 / lookahead_threads=2 / sliced_threads=0 / nr=0 / decimate=0 / interlaced=0 / bluray_compat=0 / constrained_intra=0 / bframes=9 / b_pyramid=2 / b_adapt=2 / b_bias=0 / direct=3 / weightb=1 / open_gop=0 / weightp=2 / keyint=240 / keyint_min=23 / scenecut=40 / intra_refresh=0 / rc_lookahead=40 / rc=2pass / mbtree=0 / bitrate=7520 / ratetol=1.0 / qcomp=0.65 / qpmin=0 / qpmax=69 / qpstep=4 / cplxblur=20.0 / qblur=0.5 / vbv_maxrate=50000 / vbv_bufsize=62500 / nal_hrd=none / filler=0 / ip_ratio=1.40 / pb_ratio=1.30 / aq=3:0.80
Язык                                     : English
Default                                  : Да
Forced                                   : Нет

Аудио #1
Идентификатор                            : 2
Формат                                   : AC-3
Формат/Информация                        : Audio Coding 3
Расширение режима                        : CM (complete main)
Параметр Endianness формата              : Big
Идентификатор кодека                     : A_AC3
Продолжительность                        : 2 ч. 6 м.
Вид битрейта                             : Постоянный
Битрейт                                  : 384 Кбит/сек
Каналы                                   : 6 каналов
Расположение каналов                     : Front: L C R, Side: L R, LFE
Частота                                  : 48,0 КГц
Частота кадров                           : 31,250 кадров/сек (1536 spf)
Метод сжатия                             : С потерями
Размер потока                            : 347 Мбайт (4%)
Язык                                     : Spanish
Default                                  : Да
Forced                                   : Нет

Аудио #2
Идентификатор                            : 3
Формат                                   : AC-3
Формат/Информация                        : Audio Coding 3
Расширение режима                        : CM (complete main)
Параметр Endianness формата              : Big
Идентификатор кодека                     : A_AC3
Продолжительность                        : 2 ч. 6 м.
Вид битрейта                             : Постоянный
Битрейт                                  : 640 Кбит/сек
Каналы                                   : 6 каналов
Расположение каналов                     : Front: L C R, Side: L R, LFE
Частота                                  : 48,0 КГц
Частота кадров                           : 31,250 кадров/сек (1536 spf)
Метод сжатия                             : С потерями
Размер потока                            : 578 Мбайт (7%)
Язык                                     : English
Default                                  : Нет
Forced                                   : Нет

Текст #1
Идентификатор                            : 4
Формат                                   : UTF-8
Идентификатор кодека                     : S_TEXT/UTF8
Идентификатор кодека/Информация          : UTF-8 Plain Text
Заголовок                                : FORCED
Язык                                     : Russian
Default                                  : Да
Forced                                   : Нет

Текст #2
Идентификатор                            : 5
Формат                                   : UTF-8
Идентификатор кодека                     : S_TEXT/UTF8
Идентификатор кодека/Информация          : UTF-8 Plain Text
Заголовок                                : FULL
Язык                                     : Russian
Default                                  : Нет
Forced                                   : Нет

Текст #3
Идентификатор                            : 6
Формат                                   : UTF-8
Идентификатор кодека                     : S_TEXT/UTF8
Идентификатор кодека/Информация          : UTF-8 Plain Text
Заголовок                                : FULL
Язык                                     : English
Default                                  : Нет
Forced                                   : Нет

Меню
00:00:00.000                             : en:1
00:12:43.000                             : en:2
00:21:05.000                             : en:3
00:32:32.000                             : en:4
00:43:09.000                             : en:5
00:56:48.000                             : en:6
01:06:48.000                             : en:7
01:14:13.000                             : en:8
01:23:44.000                             : en:9
01:36:37.000                             : en:10
01:46:57.000                             : en:11
01:58:59.000                             : en:12




Скриншоты:
[+] Всего файлов в раздаче - 1:
King.Arthur.Legend.of.the.Sword.(2017).BDRip.1080p.(qqss44).mkv7.53 GB

Текущая раздача:
ДатаКомментарии    РазмерПиры
2017-07-27  ↓  Меч короля Артура / King Arthur: Legend of the Sword (2017) BDRip 1080p от New-Team & qqss44 | iTunes 7.53 GB ↑ 360 ↓ 311

Показать ещё раздачи по запросу - короля:
2017-08-22  ↓  Меч короля Артура / King Arthur: Legend of the Sword (2017) BDRip-HEVC от SuperMin | Лицензия 1.22 GB ↑ 31 ↓ 20
2017-08-20  ↓  Меч короля Артура / King Arthur: Legend of the Sword [2017, BDRip 1080p] 15.48 GB ↑ 67 ↓ 62
2017-08-19  ↓  Меч короля Артура / King Arthur: Legend of the Sword (2017) BDRip от HQCLUB | D | Лицензия 2.18 GB ↑ 72 ↓ 33
2017-08-19  ↓  Меч короля Артура / King Arthur: Legend of the Sword (2017) HDRip от Scarabey | Лицензия 1.45 GB ↑ 121 ↓ 23
2017-08-18  ↓  Меч короля Артура / King Arthur: Legend of the Sword (2017) BDRip 720p от Scarabey | Лицензия 4.37 GB ↑ 48 ↓ 16
2017-08-18  ↓  Меч короля Артура / King Arthur: Legend of the Sword (2017) HDRip от Scarabey | Лицензия 2.18 GB ↑ 41 ↓ 16
2017-08-18  ↓  Меч короля Артура / King Arthur: Legend of the Sword (2017) BDRip 720p от k.e.n & MegaPeer | Лицензия 4.37 GB ↑ 65 ↓ 15

Отзывы
Зарегистрируйтесь чтобы добавить комментарий.
Обратная связь