↑↓Torrent.by
Поиск
Логин: Регистрация
Пароль: Восстановить пароль
Загрузка...

Босс-молокосос / The Boss Baby (2017) BDRip 1080p от New-Team & qqss44 | Лицензия

Скачать boss-molokosos-the-baby-2017-bdrip-1080p-ot-new-team-qqss44-licenziya.torrent
U Магнитная ссылка Размер: 5.63 GB Раздают: 73 Качают: 22 Добавлен: 2017-07-29 08:27:58
Босс-молокосос / The Boss Baby (2017) BDRip 1080p от New-Team & qqss44 | Лицензия

Мы "В КОНТАКТЕ"

Информация о фильме
Название: Босс-молокосос
Оригинальное название: The Boss Baby
Год выпуска: 2017
Жанр: Мультфильм, приключения, комедия, семейный
Режиссер: Том МакГрат
В ролях: Майлз Кристофер Бакши, Алек Болдуин, Эрик Белл мл., Стив Бушеми, Джимми Киммел, Лиза Кудроу, Тоби Магуайр, ВивиЭнн Йи

О фильме:
Эта актуальная во все времена история для взрослых и детей рассказывается от лица семилетнего брата новорожденного — фантазера Тима, который ревнует его к родителям. Но главный герой — совсем не простой ребенок, он обладает лидерскими задатками, уже носит деловые костюмы и во всем видит бизнес-задачу.

Страна: США
Студия: DreamWorks Animation
Продолжительность: 01:37:30
Перевод: Дублированный | Лицензия

Файл
Формат: MKV, BDRip 1080p
Видео: MPEG-4 AVC, 7171 Кбит/с, 1920x816
Aудио#1: [RUS] AC3 | 48 KHz | 5.1 (Front: L С R Side: L R) + LFE | ~448 kbps
Aудио#2: [ENG] AC3 | 48 KHz | 5.1 (Front: L С R Side: L R) + LFE | ~640 kbps
Субтитры: русские (форсированные и полные), английские (полные)
Релиз от:


[+] МИ

Общее
Уникальный идентификатор                 : 181796031671156906508254217345520606545 (0x88C4A461C151307A848F0D52302F9D51)
Полное имя                               : X:�0000The.Boss.Baby.(2017).BDRip.1080p.(qqss44).mkv
Формат                                   : Matroska
Версия формата                           : Version 2
Размер файла                             : 5,63 Гбайт
Продолжительность                        : 1 ч. 37 м.
Общий поток                              : 8261 Кбит/сек
Название фильма                          : The.Boss.Baby.(2017).BDRip.1080p.(qqss44)
Дата кодирования                         : UTC 2017-07-27 18:23:01
Программа кодирования                    : mkvmerge v5.8.0 ('No Sleep / Pillow') built on Sep  2 2012 15:37:04
Библиотека кодирования                   : libebml v1.2.3 + libmatroska v1.3.0

Видео
Идентификатор                            : 1
Формат                                   : AVC
Формат/Информация                        : Advanced Video Codec
Профиль формата                          : High@L4.1
Параметр CABAC формата                   : Да
Параметр ReFrames формата                : 4 кадра
Идентификатор кодека                     : V_MPEG4/ISO/AVC
Продолжительность                        : 1 ч. 37 м.
Битрейт                                  : 7171 Кбит/сек
Ширина                                   : 1920 пикселей
Высота                                   : 816 пикселей
Соотношение сторон                       : 2,35:1
Режим частоты кадров                     : Постоянный
Частота кадров                           : 23,976 (24000/1001) кадра/сек
Цветовое пространство                    : YUV
Субдискретизация насыщенности            : 4:2:0
Битовая глубина                          : 8 бит
Тип развёртки                            : Прогрессивная
Бит/(Пиксели*Кадры)                      : 0.191
Размер потока                            : 4,77 Гбайт (85%)
Библиотека кодирования                   : x264 core 150 r2833kMod df79067
Настройки программы                      : cabac=1 / ref=4 / deblock=1:0:0 / analyse=0x3:0x113 / me=umh / subme=11 / psy=1 / fade_compensate=0.00 / psy_rd=1.00:0.00 / mixed_ref=1 / me_range=32 / chroma_me=1 / trellis=2 / 8x8dct=1 / cqm=0 / deadzone=21,11 / fast_pskip=0 / chroma_qp_offset=-2 / threads=12 / lookahead_threads=2 / sliced_threads=0 / nr=0 / decimate=0 / interlaced=0 / bluray_compat=0 / constrained_intra=0 / bframes=9 / b_pyramid=2 / b_adapt=2 / b_bias=0 / direct=3 / weightb=1 / open_gop=0 / weightp=2 / keyint=240 / keyint_min=23 / scenecut=40 / intra_refresh=0 / rc_lookahead=40 / rc=2pass / mbtree=0 / bitrate=7171 / ratetol=1.0 / qcomp=0.66 / qpmin=0 / qpmax=69 / qpstep=4 / cplxblur=20.0 / qblur=0.5 / vbv_maxrate=50000 / vbv_bufsize=62500 / nal_hrd=none / filler=0 / ip_ratio=1.40 / pb_ratio=1.30 / aq=3:0.70
Язык                                     : English
Default                                  : Да
Forced                                   : Нет

Аудио #1
Идентификатор                            : 2
Формат                                   : AC-3
Формат/Информация                        : Audio Coding 3
Расширение режима                        : CM (complete main)
Параметр Endianness формата              : Big
Идентификатор кодека                     : A_AC3
Продолжительность                        : 1 ч. 37 м.
Вид битрейта                             : Постоянный
Битрейт                                  : 448 Кбит/сек
Каналы                                   : 6 каналов
Расположение каналов                     : Front: L C R, Side: L R, LFE
Частота                                  : 48,0 КГц
Частота кадров                           : 31,250 кадров/сек (1536 spf)
Метод сжатия                             : С потерями
Размер потока                            : 312 Мбайт (5%)
Язык                                     : Russian
Default                                  : Да
Forced                                   : Нет

Аудио #2
Идентификатор                            : 3
Формат                                   : AC-3
Формат/Информация                        : Audio Coding 3
Расширение режима                        : CM (complete main)
Параметр Endianness формата              : Big
Идентификатор кодека                     : A_AC3
Продолжительность                        : 1 ч. 37 м.
Вид битрейта                             : Постоянный
Битрейт                                  : 640 Кбит/сек
Каналы                                   : 6 каналов
Расположение каналов                     : Front: L C R, Side: L R, LFE
Частота                                  : 48,0 КГц
Частота кадров                           : 31,250 кадров/сек (1536 spf)
Метод сжатия                             : С потерями
Размер потока                            : 446 Мбайт (8%)
Язык                                     : English
Default                                  : Нет
Forced                                   : Нет

Текст #1
Идентификатор                            : 4
Формат                                   : UTF-8
Идентификатор кодека                     : S_TEXT/UTF8
Идентификатор кодека/Информация          : UTF-8 Plain Text
Заголовок                                : FORCED
Язык                                     : Russian
Default                                  : Да
Forced                                   : Нет

Текст #2
Идентификатор                            : 5
Формат                                   : UTF-8
Идентификатор кодека                     : S_TEXT/UTF8
Идентификатор кодека/Информация          : UTF-8 Plain Text
Заголовок                                : FULL
Язык                                     : Russian
Default                                  : Нет
Forced                                   : Нет

Текст #3
Идентификатор                            : 6
Формат                                   : UTF-8
Идентификатор кодека                     : S_TEXT/UTF8
Идентификатор кодека/Информация          : UTF-8 Plain Text
Заголовок                                : FULL
Язык                                     : English
Default                                  : Нет
Forced                                   : Нет

Меню
00:00:00.000                             : en:00:00:00.000
00:03:45.892                             : en:00:03:45.892
00:08:58.288                             : en:00:08:58.288
00:11:45.914                             : en:00:11:45.914
00:14:59.565                             : en:00:14:59.565
00:19:38.219                             : en:00:19:38.219
00:22:52.788                             : en:00:22:52.788
00:28:27.247                             : en:00:28:27.247
00:30:26.116                             : en:00:30:26.116
00:33:45.482                             : en:00:33:45.482
00:36:57.257                             : en:00:36:57.257
00:39:18.356                             : en:00:39:18.356
00:42:35.344                             : en:00:42:35.344
00:46:20.611                             : en:00:46:20.611
00:51:37.720                             : en:00:51:37.720
00:53:25.285                             : en:00:53:25.285
00:56:28.719                             : en:00:56:28.719
00:59:35.405                             : en:00:59:35.405
01:04:03.173                             : en:01:04:03.173
01:08:15.758                             : en:01:08:15.758
01:11:29.911                             : en:01:11:29.911
01:16:25.247                             : en:01:16:25.247
01:23:10.110                             : en:01:23:10.110
01:27:36.960                             : en:01:27:36.960




Скриншоты:
[+] Всего файлов в раздаче - 1:
The.Boss.Baby.(2017).BDRip.1080p.(qqss44).mkv5.63 GB

Текущая раздача:
ДатаКомментарии    РазмерПиры
2017-07-29 U Босс-молокосос / The Boss Baby (2017) BDRip 1080p от New-Team & qqss44 | Лицензия 3 К 5.63 GB ↑ 73 ↓ 22

Показать ещё раздачи по запросу - босс:
2017-09-20 U Босс-молокосос / The Boss Baby (2017) BDRip 1080p от ExKinoRay | Лицензия 7.28 GB ↑ 74 ↓ 15
2017-08-04 U Босс-молокосос / The Boss Baby (2017) BDRip от ExKinoRay | Лицензия 1К1.46 GB ↑ 83 ↓ 25
2017-08-03 U Босс-молокосос / The Boss Baby (2017) BDRip от HQCLUB | D | Лицензия 1.45 GB ↑ 71 ↓ 22
2017-07-29 U Босс-молокосос / The Boss Baby (2017) HDRip от Scarabey | Лицензия 746.41 MB ↑ 100 ↓ 16
2017-07-29 U Босс-молокосос / The Boss Baby (2017) HDRip от Scarabey | Лицензия 3К1.45 GB ↑ 86 ↓ 41
2017-07-28 U Босс-молокосос / The Boss Baby (2017) BDRip | Лицензия 1.46 GB ↑ 107 ↓ 40
2017-07-28 U Босс-молокосос / The Boss Baby (2017) BDRip от MegaPeer | Лицензия 1К1.46 GB ↑ 61 ↓ 36

Отзывы
pac-man
Возьму мелкому на просмотр. Спасибо!

tarusssovet
Ходил в кино, не понравилось. При мне с сеанса человек 5 ушли. Ожидал от DreamWorks большего. Мультфильм для аудитории 6-16 лет.

solidmax
На удивление, сюда все таки засунули английскую дорожку и субтитры, что есть очень хорошо.

Зарегистрируйтесь чтобы добавить комментарий.
Обратная связь
Copyleft ©