torrent.by
Поиск
Логин: Регистрация
Пароль: Восстановить пароль
Загрузка...

Новый Comedy Club. Дайджест. Motors [от 28.07] (2017) WEB-DLRip от OlLanDGroup

 ↓  Скачать novyy-comedy-club-daydzhest-motors-ot-28-07-2017-web-dlrip-ollandgroup.torrent
U Магнитная ссылка Размер: 630.10 MB Раздают: 199 Качают: 59 Добавлен: 2017-07-30 09:30:42
Новый Comedy Club. Дайджест. Motors [от 28.07] (2017) WEB-DLRip от OlLanDGroup

Оригинальное название: Новый Comedy Club. Дайджест. Motors
Жанр:  Юмористическое шоу
Дата выхода в эфир: 28.07.2017
Режиссер: Гарик Мартиросян
Ведущие: Гарик Харламов, Павел Воля
В ролях: Сергей Светлаков, Семен Слепаков, Группа USB - United Sexy Boys, Сергей Гореликов, Павел Воля, Тимур Батрутдинов, Виктор Васильев и Дмитрий Хрусталев, Дуэт «Рома и Леша», Зураб Матуа, Андрей Аверин, Дмитрий «Люсёк» Сорокин, Александр Незлобин и Элвис

Описание: «Comedy Club» был создан в 2005 году командой КВН «Новые армяне», в состав которой входили Артур Джанибекян, Артак Гаспарян, Артур Тумасян, Арташес Саркисян, Гарик Мартиросян и другие. Его идея была задумана ещё в 2001 году, когда Арташес Саркисян, побывав в США, увидел местный «Comedy Club». Временами стали появляться новые участники «Comedy Club», в основном из КВН. 23 апреля 2005 года «Comedy Club» впервые вышел в эфир телеканала ТНТ. Рейтинги программы стали бить все рекорды и это приносило программе большие доходы, на которые они стали делать другие проекты. Впоследствии они создали свою продюсерскую компанию «Comedy Club Production». 15 апреля 2007 года на ТНТ был показан сотый выпуск программы. Регулярно выходят новые выпуски и другие проекты - например спецвыпуски на Первом канале, юмористические фестивали и продюсирование участниками «Comedy Club» проекты других телепередач. 23 апреля 2010 года «Comedy Club» вышло с новой музыкой и обновлённым оформлением. Также «Comedy Club» выходит на каналах ICTV, НТВ+ - Мир и Comedy TV. Как всегда, Comedy Club собрал все самое смешное, чтобы оставаться самым крутым юмористическим шоу на телевидении. Камеры готовы? Музыканты готовы? Зрители готовы? Поехали!

Выпущено: ТНТ, "Comedy Club Production"
Продолжительность: 00:46:20
Язык: Русский

Файл
Кодек: AVC
Качество: WEB-DLRip
Видео: XviD, 1700 Кбит/с, 704x400
Аудио: AC3, 2 ch, 192 Кбит/с

Релиз:
[+] Инфо файл
Общее
Полное имя                               : D:ВидеоComedy Club. Дайджест. Motors(28.07.2017)WEB-DLRip by OlLanDGroup.avi
Формат                                   : AVI
Формат/Информация                        : Audio Video Interleave
Размер файла                             : 630 Мбайт
Продолжительность                        : 46 м.
Общий поток                              : 1901 Кбит/сек
Программа кодирования                    : VirtualDubMod 1.5.10.3 | www.virtualdub-fr.org || (build 2550/release)
Библиотека кодирования                   : VirtualDubMod build 2550/release

Видео
Идентификатор                            : 0
Формат                                   : MPEG-4 Visual
Профиль формата                          : Advanced Simple@L5
Параметр BVOP формата                    : 2
Параметр QPel формата                    : Нет
Параметр GMC формата                     : Без точки перехода
Параметр матрицы формата                 : Выборочная
Идентификатор кодека                     : XVID
Идентификатор кодека/Подсказка           : XviD
Продолжительность                        : 46 м.
Битрейт                                  : 1699 Кбит/сек
Ширина                                   : 704 пикселя
Высота                                   : 400 пикселей
Соотношение сторон                       : 16:9
Частота кадров                           : 25,000 кадров/сек
Цветовое пространство                    : YUV
Субдискретизация насыщенности            : 4:2:0
Битовая глубина                          : 8 бит
Тип развёртки                            : Прогрессивная
Метод сжатия                             : С потерями
Бит/(Пиксели*Кадры)                      : 0.241
Размер потока                            : 563 Мбайт (89%)
Библиотека кодирования                   : XviD 73

Аудио
Идентификатор                            : 1
Формат                                   : AC-3
Формат/Информация                        : Audio Coding 3
Расширение режима                        : CM (complete main)
Параметр Endianness формата              : Big
Идентификатор кодека                     : 2000
Продолжительность                        : 46 м.
Вид битрейта                             : Постоянный
Битрейт                                  : 192 Кбит/сек
Каналы                                   : 2 канала
Расположение каналов                     : Front: L R
Частота                                  : 48,0 КГц
Битовая глубина                          : 16 бит
Метод сжатия                             : С потерями
Размер потока                            : 63,6 Мбайт (10%)
Выравнивание                             : Разделение по промежуткам
Продолжительность промежутка             : 40  мс. (1,00 видеокадр)
Время предзагрузки промежутка            : 500  мс.




Скриншоты:
[+] Всего файлов в раздаче - 1:
Comedy Club. Дайджест. Motors(28.07.2017)WEB-DLRip by OlLanDGroup.avi630.10 MB

Текущая раздача:
ДатаКомментарии    РазмерПиры
2017-07-30  ↓  Новый Comedy Club. Дайджест. Motors [от 28.07] (2017) WEB-DLRip от OlLanDGroup 630.10 MB ↑ 199 ↓ 59

Показать ещё раздачи по запросу - новый:
Вчера  ↓  Новый Comedy Club. Дайджест. Мистический [от 18.08] (2017) WEB-DL 720p от OlLanDGroup 1.21 GB ↑ 127 ↓ 60
Вчера  ↓  Новый Comedy Club. Дайджест. Мистический [от 18.08] (2017) WEB-DLRip от OlLanDGroup 646.36 MB ↑ 147 ↓ 56
2017-08-06  ↓  Новый Comedy Club. Дайджест. Hip-hop [от 04.08] (2017) WEB-DLRip от OlLanDGroup 616.81 MB ↑ 139 ↓ 58
2017-08-06  ↓  Новый Comedy Club. Дайджест. Hip-hop [от 04.08] (2017) WEB-DL 720p от OlLanDGroup 1.18 GB ↑ 231 ↓ 61
2017-07-30  ↓  Новый Comedy Club. Дайджест. Motors [от 28.07] (2017) WEB-DL 720p от OlLanDGroup 1.22 GB ↑ 261 ↓ 93
2017-07-23  ↓  Новый Comedy Club. Дайджест.Харламеди [от 21.07] (2017) WEB-DLRip от OlLanDGroup 636.46 MB ↑ 195 ↓ 107
2017-07-23  ↓  Новый Comedy Club. Mix.Харламеди [от 21.07] (2017) WEB-DL 720p от OlLanDGroup 1.24 GB ↑ 524 ↓ 176

Отзывы
Зарегистрируйтесь чтобы добавить комментарий.
Обратная связь