torrent.by
Поиск
Логин: Регистрация
Пароль: Восстановить пароль
Загрузка...

Стражи Галактики. Часть 2 / Guardians of the Galaxy Vol. 2 (2017) WEB-DL 1080р | iTunes | ATV

 ↓  Скачать strazhi-galaktiki-chast-2-guardians-of-the-galaxy-vol-2017-web-dl-1080r-itunes-atv.torrent
U Магнитная ссылка Размер: 5.32 GB Раздают: 146 Качают: 217 Добавлен: 2017-08-08 09:46:00
Стражи Галактики. Часть 2 / Guardians of the Galaxy Vol. 2 (2017) WEB-DL 1080р | iTunes | ATV

Стражи Галактики. Часть 2 / Guardians of the Galaxy Vol. 2

Страна: США
Производство: Marvel Studios Inc., Walt Disney Pictures
Год выпуска: 2017
Жанр:  фантастика, боевик, приключения
Продолжительность: 02:16:01

Режиссер: Джеймс Ганн
Авторы сценария: Джеймс Ганн, Дэн Абнетт, Энди Леннинг

В ролях: Крис Пратт, Зои Салдана, Дэйв Батиста, Вин Дизель, Брэдли Купер, Майкл Рукер, Карен Гиллан, Пом Клементьефф, Элизабет Дебики

Описание: Все в сборе: землянин Питер Квилл (Звездный Лорд), молчаливый громила Дракс, зеленокожая наёмница Гамора, живое дерево Грут и говорящий енот. Герои не изменяют себе и с завидной регулярностью продолжают попадать в немыслимые ситуации, выпутываясь из них почти без ущерба (а иногда даже с пользой) для окружающих. На этот раз им предстоит раскрыть одну из самых главных тайн во всей Галактике: кто же на самом деле отец Питера Квилла..?

Перевод: Профессиональный (полное дублирование) | iTunes
Субтитры: русские (forced + full), английские (forced + full)

Качество: WEB-DL 1080р
Формат: M4V
Видео кодек: AVC
Аудио кодек: AAC | АС3
Видео №1: 1920x804 (2.40:1), 23.976 fps, MPEG-4 AVC ~4 511 kbps avg
Видео №2: 640x268 (2.40:1), 0.002 fps, JPEG ~571 bps avg

Аудио №1: 48.0 kHz, Advanced Audio Codec LC, 2/0 (L,R) ch, ~157 kbps | RUS / Stereo
Аудио №2: 48.0 kHz, Advanced Audio Codec LC, 2/0 (L,R) ch, ~157 kbps | ENG / Stereo
Аудио №3: 48.0 kHz, AC3 Dolby Digital, 3/2 (L,C,R,l,r) + LFE ch, ~384 kbps | RUS
Аудио №4: 48.0 kHz, AC3 Dolby Digital, 3/2 (L,C,R,l,r) + LFE ch, ~384 kbps | ENG
Формат субтитров: Timed Text

Дата премьеры (мир): 19 апреля 2017
Дата премьеры (РФ): 4 мая 2017, «WDSSPR»

Трейлер

Дополнительная информация: релиз подготовлен для просмотра на Apple TV, iPad, iPhone, iPod Touch.
Для просмотра данного релиза на компьютере с ОС Windows рекомендуется использовать VLC media player


[+] Media Info
General
Complete name : Guardians.of.the.Galaxy.Vol.2.WEB-DL.1080p.m4v
Format : MPEG-4
Codec ID : M4V
File size : 5.32 GiB
Duration : 2h 16mn
Overall bit rate mode : Variable
Overall bit rate : 5 601 Kbps
Movie name : Guardians of the Galaxy Vol. 2
Vendor : Apple:vendor_id:2017-841263
ContentRating : mpaa|PG-13|300|

Video #1
ID : 1
Format : AVC
Format/Info : Advanced Video Codec
Format profile : High@L4
Format settings, CABAC : Yes
Format settings, ReFrames : 5 frames
Codec ID : avc1
Codec ID/Info : Advanced Video Coding
Duration : 2h 16mn
Bit rate : 4 511 Kbps
Width : 1 920 pixels
Height : 804 pixels
Display aspect ratio : 2.40:1
Frame rate mode : Variable
Frame rate : 23.976 fps
Minimum frame rate : 22.727 fps
Maximum frame rate : 500.000 fps
Color space : YUV
Chroma subsampling : 4:2:0
Bit depth : 8 bits
Scan type : Progressive
Bits/(Pixel*Frame) : 0.122
Stream size : 4.29 GiB (81%)
Title : Main Program
Language : English
Encoded date : UTC 2017-08-07 23:04:03
Tagged date : UTC 2017-08-07 23:04:57
Color range : Limited
Color primaries : BT.709
Transfer characteristics : BT.709
Matrix coefficients : BT.709

Video #2
ID : 11
Format : JPEG
Codec ID : jpeg
Duration : 2h 16mn
Bit rate mode : Variable
Bit rate : 571 bps
Width : 640 pixels
Height : 268 pixels
Display aspect ratio : 2.40:1
Frame rate mode : Variable
Frame rate : 0.002 fps
Minimum frame rate : 0.002 fps
Maximum frame rate : 0.004 fps
Color space : YUV
Chroma subsampling : 4:2:0
Bit depth : 8 bits
Compression mode : Lossy
Bits/(Pixel*Frame) : 1.665
Stream size : 697 KiB (0%)
Title : Chapter Images
Language : English
Encoded date : UTC 2017-08-07 23:05:04
Tagged date : UTC 2017-08-07 23:05:05

Audio #1
ID : 2
Format : AAC
Format/Info : Advanced Audio Codec
Format profile : LC
Codec ID : 40
Duration : 2h 15mn
Bit rate mode : Variable
Bit rate : 157 Kbps
Maximum bit rate : 229 Kbps
Channel(s) : 2 channels
Channel positions : Front: L R
Sampling rate : 48.0 KHz
Compression mode : Lossy
Stream size : 152 MiB (3%)
Title : Russian Stereo
Language : Russian
Encoded date : UTC 2017-08-07 23:04:03
Tagged date : UTC 2017-08-07 23:04:10

Audio #2
ID : 3
Format : AAC
Format/Info : Advanced Audio Codec
Format profile : LC
Codec ID : 40
Duration : 2h 15mn
Bit rate mode : Variable
Bit rate : 157 Kbps
Maximum bit rate : 244 Kbps
Channel(s) : 2 channels
Channel positions : Front: L R
Sampling rate : 48.0 KHz
Compression mode : Lossy
Stream size : 152 MiB (3%)
Title : English Stereo
Language : English
Encoded date : UTC 2017-08-07 23:04:03
Tagged date : UTC 2017-08-07 23:04:10

Audio #3
ID : 4
Format : AC-3
Format/Info : Audio Coding 3
Mode extension : CM (complete main)
Format settings, Endianness : Big
Codec ID : ac-3
Duration : 2h 15mn
Bit rate mode : Constant
Bit rate : 384 Kbps
Channel(s) : 6 channels
Channel positions : Front: L C R, Side: L R, LFE
Sampling rate : 48.0 KHz
Bit depth : 16 bits
Compression mode : Lossy
Stream size : 373 MiB (7%)
Title : Russian DD 5.1
Language : Russian
Encoded date : UTC 2017-08-07 23:04:03
Tagged date : UTC 2017-08-07 23:04:57

Audio #4
ID : 5
Format : AC-3
Format/Info : Audio Coding 3
Mode extension : CM (complete main)
Format settings, Endianness : Big
Codec ID : ac-3
Duration : 2h 15mn
Bit rate mode : Constant
Bit rate : 384 Kbps
Channel(s) : 6 channels
Channel positions : Front: L C R, Side: L R, LFE
Sampling rate : 48.0 KHz
Bit depth : 16 bits
Compression mode : Lossy
Stream size : 373 MiB (7%)
Title : English DD 5.1
Language : English
Encoded date : UTC 2017-08-07 23:04:03
Tagged date : UTC 2017-08-07 23:04:57

Text #1
ID : 6
Format : Timed Text
Muxing mode : sbtl
Codec ID : tx3g
Duration : 2h 7mn
Bit rate mode : Variable
Bit rate : 0 bps
Stream size : 413 Bytes (0%)
Title : Russian forced
Language : Russian
Encoded date : UTC 2017-08-07 23:04:03
Tagged date : UTC 2017-08-07 23:04:57

Text #2
ID : 7
Format : Timed Text
Muxing mode : sbtl
Codec ID : tx3g
Duration : 4mn 53s
Duration_FirstFrame : 4mn 45s
Bit rate mode : Variable
Bit rate : 1 bps
Stream size : 34.0 Bytes (0%)
Title : English forced
Language : English
Encoded date : UTC 2017-08-07 23:04:03
Tagged date : UTC 2017-08-07 23:04:57

Text #3
ID : 8
Format : Timed Text
Muxing mode : sbtl
Codec ID : tx3g
Duration : 2h 15mn
Bit rate mode : Variable
Bit rate : 81 bps
Stream size : 80.1 KiB (0%)
Title : Russian full
Language : Russian
Encoded date : UTC 2017-08-07 23:04:03
Tagged date : UTC 2017-08-07 23:04:57

Text #4
ID : 9
Format : Timed Text
Muxing mode : sbtl
Codec ID : tx3g
Duration : 2h 15mn
Bit rate mode : Variable
Bit rate : 55 bps
Stream size : 54.5 KiB (0%)
Title : English full
Language : English
Encoded date : UTC 2017-08-07 23:04:03
Tagged date : UTC 2017-08-07 23:04:57

Menu #1
00:00:00.000 : King Cobra & Giant Sea Monkey
00:09:56.000 : Golden Morons
00:15:10.000 : Space Chase
00:22:14.000 : Not From Missouri
00:32:33.000 : Deepest, Darkest Secrets
00:36:52.000 : Berhert Ambush
00:42:29.000 : Finding Meaning
00:48:03.000 : Taserface
00:53:19.000 : Celestial Catch
00:58:46.000 : Let's Agree To Never Discuss This
01:05:52.000 : Eclector Escape
01:11:12.000 : Sibling Rivalry
01:18:43.000 : Eternity
01:23:55.000 : Two Of A Kind
01:30:24.000 : Inflated Ego
01:39:36.000 : What A Day
01:47:06.000 : From The Heart
01:54:21.000 : A Father's Sacrifice
01:58:52.000 : The Colors Of Ogord
02:07:13.000 : End Credits

Menu #2
ID : 10
Codec ID : text
Duration : 2h 16mn
Language : English
Encoded date : UTC 2017-08-07 23:04:57
Tagged date : UTC 2017-08-07 23:04:57
00:00:00.000 : King Cobra & Giant Sea Monkey
00:09:56.000 : Golden Morons
00:15:10.000 : Space Chase
00:22:14.000 : Not From Missouri
00:32:33.000 : Deepest, Darkest Secrets
00:36:52.000 : Berhert Ambush
00:42:29.000 : Finding Meaning
00:48:03.000 : Taserface
00:53:19.000 : Celestial Catch
00:58:46.000 : Let's Agree To Never Discuss This
01:05:52.000 : Eclector Escape
01:11:12.000 : Sibling Rivalry
01:18:43.000 : Eternity
01:23:55.000 : Two Of A Kind
01:30:24.000 : Inflated Ego
01:39:36.000 : What A Day
01:47:06.000 : From The Heart
01:54:21.000 : A Father's Sacrifice
01:58:52.000 : The Colors Of Ogord
02:07:13.000 : End Credits
Bit rate mode : VBR



Скриншоты:
[+] Всего файлов в раздаче - 1:
Guardians.of.the.Galaxy.Vol.2.WEB-DL.1080p.m4v5.32 GB

Текущая раздача:
ДатаКомментарии    РазмерПиры
2017-08-08  ↓  Стражи Галактики. Часть 2 / Guardians of the Galaxy Vol. 2 (2017) WEB-DL 1080р | iTunes | ATV 5.32 GB ↑ 146 ↓ 217

Показать ещё раздачи по запросу - стражи:
Сегодня  ↓  Стражи Галактики. Часть 2 / Guardians of the Galaxy Vol. 2 (2017) BDRip-HEVC от SuperMin | iTunes 1.56 GB ↑ 50 ↓ 11
2017-08-14  ↓  Стражи Галактики. Часть 2 / Guardians of the Galaxy Vol. 2 (2017) BDRip 720p от Scarabey | iTunes 5.22 GB ↑ 110 ↓ 34
2017-08-14  ↓  Стражи Галактики. Часть 2 / Guardians of the Galaxy Vol. 2 (2017) BDRip-HEVC 1080p | iTunes 4.26 GB ↑ 132 ↓ 51
2017-08-13  ↓  Стражи Галактики. Часть 2 / Guardians of the Galaxy. Vol. 2 (2017) BDRip-HEVC 1080p от ХиМиК | iTunes 4.67 GB ↑ 153 ↓ 117
2017-08-13  ↓  Стражи Галактики. Часть 2 / Guardians of the Galaxy Vol. 2 (2017) BDRip от ExKinoRay | iTunes 2.12 GB ↑ 121 ↓ 31
2017-08-13  ↓  Стражи Галактики. Часть 2 / Guardians of the Galaxy Vol. 2 (2017) BDRip от ExKinoRay | iTunes 1.46 GB ↑ 127 ↓ 51
2017-08-13  ↓  Стражи Галактики. Часть 2 / Guardians of the Galaxy Vol. 2 (2017) BDRip 1080p от New-Team & qqss44 | iTunes 9.70 GB ↑ 303 ↓ 128

Отзывы
Зарегистрируйтесь чтобы добавить комментарий.
Обратная связь