torrent.by
Поиск
Логин: Регистрация
Пароль: Восстановить пароль
Загрузка...

Стражи Галактики. Часть 2 / Guardians of the Galaxy Vol. 2 (2017) BDRip 1080p | iTunes

 ↓  Скачать strazhi-galaktiki-chast-2-guardians-of-the-galaxy-vol-2017-bdrip-1080p-itunes.torrent
U Магнитная ссылка Размер: 10.20 GB Раздают: 636 Качают: 1392 Добавлен: 2017-08-08 17:14:31
Стражи Галактики. Часть 2 / Guardians of the Galaxy Vol. 2 (2017) BDRip 1080p | iTunes

Стражи Галактики. Часть 2 / Guardians of the Galaxy Vol. 2

Страна: США
Производство: Marvel Studios Inc., Walt Disney Pictures
Год выпуска: 2017
Жанр:  фантастика, боевик, приключения
Продолжительность: 02:15:46

Режиссер: Джеймс Ганн
Авторы сценария: Джеймс Ганн, Дэн Абнетт, Энди Леннинг

В ролях: Крис Пратт, Зои Салдана, Дэйв Батиста, Вин Дизель, Брэдли Купер, Майкл Рукер, Карен Гиллан, Пом Клементьефф, Элизабет Дебики

Описание: Все в сборе: землянин Питер Квилл (Звездный Лорд), молчаливый громила Дракс, зеленокожая наёмница Гамора, живое дерево Грут и говорящий енот. Герои не изменяют себе и с завидной регулярностью продолжают попадать в немыслимые ситуации, выпутываясь из них почти без ущерба (а иногда даже с пользой) для окружающих. На этот раз им предстоит раскрыть одну из самых главных тайн во всей Галактике: кто же на самом деле отец Питера Квилла..?

Перевод: Профессиональный (полное дублирование) | iTunes
Субтитры: русские, английские

Качество: BDRip 1080p
Формат: МКV
Видео кодек: AVC
Аудио кодек: АС3 | DTS
Видео: 1920x808 (2.40:1), 23.976 fps, MPEG-4 AVC ~8 870 kbps avg
Аудио №1: 48.0 kHz, AC3 Dolby Digital, 3/2 (L,C,R,l,r) + LFE ch, ~384 kbps | RUS / iTunes
Аудио №2: 48.0 kHz, Digital Theater Systems, 3/2 (L,C,R,l,r) + LFE ch, ~1509 kbps | ENG
Формат субтитров: UTF-8 Plain Text

Дата премьеры (мир): 19 апреля 2017
Дата премьеры (РФ): 4 мая 2017, «WDSSPR»

Трейлер


[+] M/I
General
Unique ID                                : 172408443649021185507867532865276794617 (0x81B4A88ECB9F7F86ADAE1748EB78D6F9)
Complete name                            : E:фильмыGuardians.of.the.Galaxy.Vol.2.2017.BDRip.1080p.mkv
Format                                   : Matroska
Format version                           : Version 4 / Version 2
File size                                : 10.2 GiB
Duration                                 : 2h 15mn
Overall bit rate                         : 10.8 Mbps
Encoded date                             : UTC 2017-08-08 09:23:28
Writing application                      : mkvmerge v14.0.0 ('Flow') 64bit
Writing library                          : libebml v1.3.4 + libmatroska v1.4.5
DURATION                                 : 02:15:45.440000000
NUMBER_OF_FRAMES                         : 254545
NUMBER_OF_BYTES                          : 390981120
_STATISTICS_WRITING_APP                  : mkvmerge v14.0.0 ('Flow') 64bit
_STATISTICS_WRITING_DATE_UTC             : 2017-08-08 09:23:28
_STATISTICS_TAGS                         : BPS DURATION NUMBER_OF_FRAMES NUMBER_OF_BYTES

Video
ID                                       : 1
Format                                   : AVC
Format/Info                              : Advanced Video Codec
Format profile                           : High@L4.1
Format settings, CABAC                   : Yes
Format settings, ReFrames                : 5 frames
Codec ID                                 : V_MPEG4/ISO/AVC
Duration                                 : 2h 15mn
Bit rate                                 : 8 865 Kbps
Width                                    : 1 920 pixels
Height                                   : 808 pixels
Display aspect ratio                     : 2.40:1
Frame rate mode                          : Constant
Frame rate                               : 23.976 fps
Color space                              : YUV
Chroma subsampling                       : 4:2:0
Bit depth                                : 8 bits
Scan type                                : Progressive
Bits/(Pixel*Frame)                       : 0.238
Stream size                              : 8.21 GiB (80%)
Writing library                          : x264 core 150 r2833 df79067
Encoding settings                        : cabac=1 / ref=5 / deblock=1:0:0 / analyse=0x3:0x133 / me=umh / subme=7 / psy=1 / psy_rd=1.00:0.00 / mixed_ref=1 / me_range=16 / chroma_me=1 / trellis=1 / 8x8dct=1 / cqm=0 / deadzone=21,11 / fast_pskip=0 / chroma_qp_offset=-2 / threads=25 / lookahead_threads=4 / sliced_threads=0 / nr=0 / decimate=1 / interlaced=0 / bluray_compat=0 / constrained_intra=0 / bframes=3 / b_pyramid=2 / b_adapt=1 / b_bias=0 / direct=1 / weightb=1 / open_gop=0 / weightp=2 / keyint=250 / keyint_min=23 / scenecut=40 / intra_refresh=0 / rc_lookahead=40 / rc=2pass / mbtree=1 / bitrate=8865 / ratetol=1.0 / qcomp=0.60 / qpmin=0 / qpmax=69 / qpstep=4 / cplxblur=20.0 / qblur=0.5 / ip_ratio=1.40 / aq=1:1.00
Language                                 : English
Default                                  : Yes
Forced                                   : No
DURATION                                 : 02:15:46.110000000
NUMBER_OF_FRAMES                         : 195311
NUMBER_OF_BYTES                          : 9026667581
_STATISTICS_WRITING_APP                  : mkvmerge v14.0.0 ('Flow') 64bit
_STATISTICS_WRITING_DATE_UTC             : 2017-08-08 09:23:28
_STATISTICS_TAGS                         : BPS DURATION NUMBER_OF_FRAMES NUMBER_OF_BYTES

Audio #1
ID                                       : 2
Format                                   : AC-3
Format/Info                              : Audio Coding 3
Mode extension                           : CM (complete main)
Format settings, Endianness              : Big
Codec ID                                 : A_AC3
Duration                                 : 2h 15mn
Bit rate mode                            : Constant
Bit rate                                 : 384 Kbps
Channel(s)                               : 6 channels
Channel positions                        : Front: L C R, Side: L R, LFE
Sampling rate                            : 48.0 KHz
Bit depth                                : 16 bits
Compression mode                         : Lossy
Stream size                              : 373 MiB (4%)
Language                                 : Russian
Default                                  : Yes
Forced                                   : No

Audio #2
ID                                       : 3
Format                                   : DTS
Format/Info                              : Digital Theater Systems
Codec ID                                 : A_DTS
Duration                                 : 2h 15mn
Bit rate mode                            : Constant
Bit rate                                 : 1 510 Kbps
Channel(s)                               : 6 channels
Channel positions                        : Front: L C R, Side: L R, LFE
Sampling rate                            : 48.0 KHz
Bit depth                                : 24 bits
Compression mode                         : Lossy
Stream size                              : 1.43 GiB (14%)
Language                                 : English
Default                                  : No
Forced                                   : No

Text #1
ID                                       : 4
Format                                   : UTF-8
Codec ID                                 : S_TEXT/UTF8
Codec ID/Info                            : UTF-8 Plain Text
Language                                 : Russian
Default                                  : Yes
Forced                                   : Yes

Text #2
ID                                       : 5
Format                                   : UTF-8
Codec ID                                 : S_TEXT/UTF8
Codec ID/Info                            : UTF-8 Plain Text
Language                                 : Russian
Default                                  : No
Forced                                   : No

Text #3
ID                                       : 6
Format                                   : UTF-8
Codec ID                                 : S_TEXT/UTF8
Codec ID/Info                            : UTF-8 Plain Text
Language                                 : English
Default                                  : No
Forced                                   : No

Menu
00:00:00.000                             : en:00:00:00.000
00:09:56.179                             : en:00:09:56.179
00:15:10.118                             : en:00:15:10.118
00:22:14.083                             : en:00:22:14.083
00:32:33.702                             : en:00:32:33.702
00:36:52.127                             : en:00:36:52.127
00:42:29.172                             : en:00:42:29.172
00:48:03.464                             : en:00:48:03.464
00:53:18.904                             : en:00:53:18.904
00:58:45.939                             : en:00:58:45.939
01:05:52.240                             : en:01:05:52.240
01:11:12.435                             : en:01:11:12.435
01:18:43.594                             : en:01:18:43.594
01:23:55.322                             : en:01:23:55.322
01:30:24.753                             : en:01:30:24.753
01:39:36.179                             : en:01:39:36.179
01:47:06.211                             : en:01:47:06.211
01:54:21.605                             : en:01:54:21.605
01:58:53.710                             : en:01:58:53.710
02:07:13.459                             : en:02:07:13.459



Скриншоты:
[+] Всего файлов в раздаче - 1:
Guardians.of.the.Galaxy.Vol.2.2017.BDRip.1080p.mkv10.20 GB

Текущая раздача:
ДатаКомментарии    РазмерПиры
2017-08-08  ↓  Стражи Галактики. Часть 2 / Guardians of the Galaxy Vol. 2 (2017) BDRip 1080p | iTunes 10.20 GB ↑ 636 ↓ 1392

Показать ещё раздачи по запросу - стражи:
2017-08-18  ↓  Стражи Галактики. Часть 2 / Guardians of the Galaxy Vol. 2 (2017) BDRip-HEVC от SuperMin | iTunes 1.56 GB ↑ 53 ↓ 23
2017-08-14  ↓  Стражи Галактики. Часть 2 / Guardians of the Galaxy Vol. 2 (2017) BDRip 720p от Scarabey | iTunes 5.22 GB ↑ 119 ↓ 45
2017-08-14  ↓  Стражи Галактики. Часть 2 / Guardians of the Galaxy Vol. 2 (2017) BDRip-HEVC 1080p | iTunes 4.26 GB ↑ 137 ↓ 58
2017-08-13  ↓  Стражи Галактики. Часть 2 / Guardians of the Galaxy. Vol. 2 (2017) BDRip-HEVC 1080p от ХиМиК | iTunes 4.67 GB ↑ 165 ↓ 122
2017-08-13  ↓  Стражи Галактики. Часть 2 / Guardians of the Galaxy Vol. 2 (2017) BDRip от ExKinoRay | iTunes 2.12 GB ↑ 122 ↓ 33
2017-08-13  ↓  Стражи Галактики. Часть 2 / Guardians of the Galaxy Vol. 2 (2017) BDRip от ExKinoRay | iTunes 1.46 GB ↑ 131 ↓ 54
2017-08-13  ↓  Стражи Галактики. Часть 2 / Guardians of the Galaxy Vol. 2 (2017) BDRip 1080p от New-Team & qqss44 | iTunes 9.70 GB ↑ 311 ↓ 132

Отзывы
Зарегистрируйтесь чтобы добавить комментарий.
Обратная связь