torrent.by
Поиск
Логин: Регистрация
Пароль: Восстановить пароль
Загрузка...

Призрак в доспехах / Koukaku Kidoutai / Ghost in the Shell (1995) BDRip HEVC 720p | D, P

 ↓  Скачать prizrak-v-dospehah-koukaku-kidoutai-ghost-in-the-shell-1995-bdrip-hevc-720p-d-p.torrent
U Магнитная ссылка Размер: 3.16 GB Раздают: 49 Качают: 7 Добавлен: 2017-08-10 06:49:37
Призрак в доспехах / Koukaku Kidoutai / Ghost in the Shell (1995) BDRip HEVC 720p | D, P

Название: Призрак в доспехах
Оригинальное название: Koukaku Kidoutai

Год выпуска: 1995
Страна: Япония
Жанр:  приключения, фантастика
Продолжительность: 01:22:40
Перевод: Дублированный [ОРТ], Многоголосый закадровый [AniDub], Двухголосый закадровый [Гланц и Королева]
Субтитры: Russian, English

Режиссёр: Осии Мамору
Снято по манге: Koukaku Kidoutai

Описание: В недалеком 2029 году сети и компьютеры развились до того, что появилась возможность создавать высокотехнологичных киборгов с полной интеграцией в Сеть. Главная героиня Кусанаги Мотоко - киборг, с человеческим разумом внутри кибернетического тела, майор Девятого отдела, созданного для спецопераций правительства. В Сети объявляется некий Кукловод, манипулирующий людьми через ту же Сеть, заставляя их действовать в его интересах. Его поимкой и занимается Девятый отдел. Но не все так просто, Кукловод оказывается разумным вирусом, разработанным "коллегами" из Шестого отдела для промышленного шпионажа и т.д., в деле оказывается замешана политика...

Качество: BDRip 720p
Формат: MKV
Видео кодек: x265
Аудио кодек: AC3
Видео: 1280x688, 23,976 fps, HEVC, ~3702 kbps, 10bit
Аудио: Rus, 48 kHz/16-bit, AC3 2.0, ~448 kbps | Дубляж
Аудио: Rus, 48 kHz/16-bit, AC3 2.0, ~448 kbps | AniDub
Аудио: Rus, 48 kHz/16-bit, AC3 2.0, ~448 kbps | Гланц и Королева
Аудио: Jpn, 48 kHz/16-bit, AC3 2.0, ~448 kbps | Оригинал
Навигация по главам: Присутствует

Автор рипа: Alex_A

Семпл

World Art | MAL


[+] Внимание!
- H.265/HEVC (High Efficiency Video Coding) - это новый стандарт кодирования видео.
- Стандарт H.265/HEVC является логическим продолжением стандарта H.264/AVC (Advanced Video Coding), и характеризуется более эффективными алгоритмами сжатия, а также поддержкой высокого разрешения вплоть до 8K UHD (8192x4320). Первая версия стандарта H.265 была опубликована в начале 2013 года.
- Рипы в фомате HEVC, в настоящее время не поддерживается большинством аппаратных проигрывателей.
- Для корректного воспроизведения может потребоваться обновление ПО.
- Владельцам несовместимого железа просьба не беспокоить, есть альтернативные релизы.



[+] Медиаинфо
Общее
Уникальный идентификатор                 : 240263550904249918748309226183680265389 (0xB4C113A42086FE7D9B4085CD24730CAD)
Полное имя                               : e:HEVCGhost in the ShellGhost.in.the.Shell.1995.720p_HEVCCLUB.mkv
Формат                                   : Matroska
Версия формата                           : Version 4 / Version 2
Размер файла                             : 3,16 Гбайт
Продолжительность                        : 1 ч. 22 м.
Общий поток                              : 5475 Кбит/сек
Название фильма                          : Ghost in the Shell (1995) - HEVC.CLUB
Дата кодирования                         : UTC 2017-01-16 04:04:07
Программа кодирования                    : mkvmerge v9.7.0 ('Numbers') 64bit
Библиотека кодирования                   : libebml v1.3.4 + libmatroska v1.4.5
Обложка                                  : Yes
Attachments                              : cover.jpg / Albert.ttf / Montara-BoldGothic.ttf / Prototype.ttf / TCCEB.TTF

Видео
Идентификатор                            : 1
Формат                                   : HEVC
Формат/Информация                        : High Efficiency Video Coding
Профиль формата                          : Main 10@L4.1@High
Идентификатор кодека                     : V_MPEGH/ISO/HEVC
Продолжительность                        : 1 ч. 22 м.
Битрейт                                  : 3702 Кбит/сек
Ширина                                   : 1280 пикселей
Высота                                   : 688 пикселей
Соотношение сторон                       : 1,85:1
Соотношение сторон в оригинале           : 1,85:1
Режим частоты кадров                     : Постоянный
Частота кадров                           : 23,976 (24000/1001) кадра/сек
Цветовое пространство                    : YUV
Субдискретизация насыщенности            : 4:2:0
Битовая глубина                          : 10 бит
Бит/(Пиксели*Кадры)                      : 0.175
Размер потока                            : 2,14 Гбайт (68%)
Заголовок                                : HEVC.CLUB
Библиотека кодирования                   : x265 2.2+22-20217c8af8ac:[Windows][GCC 6.2.0][64 bit] 10bit
Настройки программы                      : cpuid=1173503 / frame-threads=3 / numa-pools=8 / wpp / no-pmode / no-pme / no-psnr / ssim / log-level=2 / input-csp=1 / input-res=1280x688 / interlace=0 / total-frames=0 / level-idc=41 / high-tier=1 / uhd-bd=0 / ref=6 / no-allow-non-conformance / repeat-headers / annexb / aud / hrd / info / hash=0 / no-temporal-layers / open-gop / min-keyint=23 / keyint=250 / bframes=8 / b-adapt=2 / b-pyramid / bframe-bias=0 / rc-lookahead=60 / lookahead-slices=0 / scenecut=40 / no-intra-refresh / ctu=64 / min-cu-size=8 / no-rect / no-amp / max-tu-size=32 / tu-inter-depth=3 / tu-intra-depth=3 / limit-tu=0 / rdoq-level=1 / signhide / no-tskip / nr-intra=0 / nr-inter=0 / no-constrained-intra / no-strong-intra-smoothing / max-merge=2 / limit-refs=3 / no-limit-modes / me=1 / subme=4 / merange=64 / temporal-mvp / weightp / weightb / no-analyze-src-pics / deblock=-3:-3 / no-sao / no-sao-non-deblock / rd=4 / no-early-skip / no-rskip / no-fast-intra / no-tskip-fast / no-cu-lossless / no-b-intra / rdpenalty=0 / psy-rd=1.60 / psy-rdoq=2.30 / no-rd-refine / analysis-mode=0 / no-lossless / cbqpoffs=0 / crqpoffs=0 / rc=crf / crf=21.0 / qcomp=0.80 / qpstep=6 / stats-write=0 / stats-read=0 / vbv-maxrate=50000 / vbv-bufsize=50000 / vbv-init=0.9 / crf-max=0.0 / crf-min=0.0 / ipratio=1.40 / pbratio=1.10 / aq-mode=1 / aq-strength=0.20 / no-cutree / zone-count=0 / no-strict-cbr / qg-size=32 / no-rc-grain / qpmax=69 / qpmin=0 / sar=255 / sar-width / : / sar-height=3999:4016 / overscan=0 / videoformat=5 / range=0 / colorprim=2 / transfer=2 / colormatrix=1 / chromaloc=0 / display-window=0 / max-cll=0,0 / min-luma=0 / max-luma=1023 / log2-max-poc-lsb=8 / vui-timing-info / vui-hrd-info / slices=1 / opt-qp-pps / opt-ref-list-length-pps / no-multi-pass-opt-rps / scenecut-bias=0.05 / no-opt-cu-delta-qp / no-aq-motion
Default                                  : Да
Forced                                   : Да
Цветовой диапазон                        : Limited
Коэффициенты матрицы                     : BT.709

Аудио #1
Идентификатор                            : 2
Формат                                   : AC-3
Формат/Информация                        : Audio Coding 3
Расширение режима                        : CM (complete main)
Параметр Endianness формата              : Big
Идентификатор кодека                     : A_AC3
Продолжительность                        : 1 ч. 18 м.
Вид битрейта                             : Постоянный
Битрейт                                  : 448 Кбит/сек
Каналы                                   : 2 канала
Расположение каналов                     : Front: L R
Частота                                  : 48,0 КГц
Частота кадров                           : 31,250 кадров/сек (1536 spf)
Битовая глубина                          : 16 бит
Метод сжатия                             : С потерями
Размер потока                            : 251 Мбайт (8%)
Заголовок                                : Dub [ОРТ]
Язык                                     : Russian
Default                                  : Да
Forced                                   : Нет

Аудио #2
Идентификатор                            : 3
Формат                                   : AC-3
Формат/Информация                        : Audio Coding 3
Расширение режима                        : CM (complete main)
Параметр Endianness формата              : Big
Идентификатор кодека                     : A_AC3
Продолжительность                        : 1 ч. 22 м.
Вид битрейта                             : Постоянный
Битрейт                                  : 448 Кбит/сек
Каналы                                   : 2 канала
Расположение каналов                     : Front: L R
Частота                                  : 48,0 КГц
Частота кадров                           : 31,250 кадров/сек (1536 spf)
Битовая глубина                          : 16 бит
Метод сжатия                             : С потерями
Размер потока                            : 265 Мбайт (8%)
Заголовок                                : MVO [AniDub]
Язык                                     : Russian
Default                                  : Нет
Forced                                   : Нет

Аудио #3
Идентификатор                            : 4
Формат                                   : AC-3
Формат/Информация                        : Audio Coding 3
Расширение режима                        : CM (complete main)
Параметр Endianness формата              : Big
Идентификатор кодека                     : A_AC3
Продолжительность                        : 1 ч. 22 м.
Вид битрейта                             : Постоянный
Битрейт                                  : 448 Кбит/сек
Каналы                                   : 2 канала
Расположение каналов                     : Front: L R
Частота                                  : 48,0 КГц
Частота кадров                           : 31,250 кадров/сек (1536 spf)
Битовая глубина                          : 16 бит
Метод сжатия                             : С потерями
Размер потока                            : 265 Мбайт (8%)
Заголовок                                : DVO [Гланц и Королева]
Язык                                     : Russian
Default                                  : Нет
Forced                                   : Нет

Аудио #4
Идентификатор                            : 5
Формат                                   : AC-3
Формат/Информация                        : Audio Coding 3
Расширение режима                        : CM (complete main)
Параметр Endianness формата              : Big
Идентификатор кодека                     : A_AC3
Продолжительность                        : 1 ч. 22 м.
Вид битрейта                             : Постоянный
Битрейт                                  : 448 Кбит/сек
Каналы                                   : 2 канала
Расположение каналов                     : Front: L R
Частота                                  : 48,0 КГц
Частота кадров                           : 31,250 кадров/сек (1536 spf)
Битовая глубина                          : 16 бит
Метод сжатия                             : С потерями
Размер потока                            : 265 Мбайт (8%)
Заголовок                                : Original
Язык                                     : Japanese
Default                                  : Нет
Forced                                   : Нет

Текст #1
Идентификатор                            : 6
Формат                                   : ASS
Идентификатор кодека                     : S_TEXT/ASS
Идентификатор кодека/Информация          : Advanced Sub Station Alpha
Продолжительность                        : 15 с. 550 мс.
Битрейт                                  : 451 бит/сек
Count of elements                        : 4
Метод сжатия                             : Без потерь
Размер потока                            : 877 байт (0%)
Заголовок                                : Forced [Advokat]
Язык                                     : Russian
Default                                  : Нет
Forced                                   : Нет

Текст #2
Идентификатор                            : 7
Формат                                   : ASS
Идентификатор кодека                     : S_TEXT/ASS
Идентификатор кодека/Информация          : Advanced Sub Station Alpha
Продолжительность                        : 1 ч. 17 м.
Битрейт                                  : 131 бит/сек
Count of elements                        : 563
Метод сжатия                             : Без потерь
Размер потока                            : 74,4 Кбайт (0%)
Заголовок                                : Full [Advokat]
Язык                                     : Russian
Default                                  : Нет
Forced                                   : Нет

Текст #3
Идентификатор                            : 8
Формат                                   : UTF-8
Идентификатор кодека                     : S_TEXT/UTF8
Идентификатор кодека/Информация          : UTF-8 Plain Text
Продолжительность                        : 1 ч. 17 м.
Битрейт                                  : 62 бит/сек
Count of elements                        : 810
Размер потока                            : 35,2 Кбайт (0%)
Заголовок                                : Full
Язык                                     : English
Default                                  : Нет
Forced                                   : Нет

Меню
00:00:00.000                             : en:00:00:00.000
00:04:06.163                             : en:00:04:06.163
00:08:24.754                             : en:00:08:24.754
00:13:15.169                             : en:00:13:15.169
00:24:17.706                             : en:00:24:17.706
00:26:05.063                             : en:00:26:05.063
00:27:40.158                             : en:00:27:40.158
00:33:02.981                             : en:00:33:02.981
00:36:21.513                             : en:00:36:21.513
00:45:32.271                             : en:00:45:32.271
00:53:59.486                             : en:00:53:59.486
00:59:40.410                             : en:00:59:40.410
01:06:24.355                             : en:01:06:24.355
01:13:58.434                             : en:01:13:58.434
01:17:31.480                             : en:01:17:31.480




Скриншоты:
[+] Всего файлов в раздаче - 1:
Ghost.in.the.Shell.1995.720p_HEVCCLUB.mkv3.16 GB

Текущая раздача:
ДатаКомментарии    РазмерПиры
2017-08-10  ↓  Призрак в доспехах / Koukaku Kidoutai / Ghost in the Shell (1995) BDRip HEVC 720p | D, P 3.16 GB ↑ 49 ↓ 7

Показать ещё раздачи по запросу - призрак:
2017-07-29  ↓  Призрак в доспехах / Ghost in the Shell (2017) BDRip 1080p от HELLYWOOD | Лицензия 6.74 GB ↑ 133 ↓ 53
2017-07-24  ↓  Призрак в доспехах / Ghost in the Shell (2017) HDRip от Scarabey | Лицензия 1.45 GB ↑ 145 ↓ 62
2017-07-24  ↓  Призрак в доспехах / Ghost in the Shell (2017) BDRip 1080p | 3D-Video | halfOU | Лицензия 2Комментарии6.73 GB ↑ 97 ↓ 80
2017-07-23  ↓  Призрак в доспехах / Ghost in the Shell (2017) BDRip 720p от Scarabey | Лицензия 4.09 GB ↑ 70 ↓ 31
2017-07-23  ↓  Призрак в доспехах / Ghost in the Shell (2017) BDRip 720p от HELLYWOOD | Лицензия 4.37 GB ↑ 161 ↓ 37
2017-07-22  ↓  Призрак в доспехах / Ghost in the Shell (2017) BDRip-AVC от MegaPeer | Лицензия 746.91 MB ↑ 72 ↓ 38
2017-07-22  ↓  Призрак в доспехах / Ghost in the Shell (2017) BDRip от HQ-ViDEO | Лицензия 2.18 GB ↑ 72 ↓ 54

Отзывы
Зарегистрируйтесь чтобы добавить комментарий.
Обратная связь