torrent.by
Поиск
Логин: Регистрация
Пароль: Восстановить пароль
Загрузка...

Безумные соседи / À bras ouverts (2017) BDRip 720p | L

 ↓  Скачать bezumnye-sosedi-bras-ouverts-2017-bdrip-720p-l.torrent
U Магнитная ссылка Размер: 3.87 GB Раздают: 91 Качают: 96 Добавлен: 2017-08-12 16:10:57
Безумные соседи / À bras ouverts (2017) BDRip 720p | L

Год выпуска: 2017
Жанр:  комедия, ...
Режиссёр: Филипп де Шоврон
В ролях: Кристиан Клавье, Эри Абиттан, Эльза Зильберштейн, Сириль Леконт, Нану Гарсия, Оскар Берт, Мирела Николау, София Мануша, Иоана Висалон, Никита Драгомир, ...

О фильме:
В запале предвыборных дебатов рафинированный буржуа Жан-Этьен Фужероль неосторожно бросает с экрана телевизора, что его любимая Франция открыта для любых иммигрантов, они повсюду найдут себе кров и еду, даже в его доме. Не проходит и суток, как у его ворот появляется цыганский табор во главе с наглецом Бабиком. Не пустить — потерять голоса избирателей. Размеренной семейной жизни приходит конец: нежданные гости плавают в крытом бассейне, устраивают концерты во дворе, обживают хозяйский туалет, пьют коллекционные вина и даже пытаются приударить за женой Жан-Этьена.

Страна: Франция, Бельгия
Продолжительность: 01:33:25
Перевод: Любительский (многоголосый) [Синема УС]
Субтитры: Отсутствуют

Качество: BDRip 720p
Формат: MKV
Видео: AVC, 1280x690 (1,85:1), 24.000 fps, 5487 Kbps (0.259 bit/pixel)
Аудио: AC-3, 48.0 KHz, 2 ch, 448 Kbps, CBR

Примечание: Присутствует реклама!


[+] M/I
Общее
Уникальный идентификатор                 : 188596888952040510565650605142481201909 (0x8DE27088A6303508ACB9C3D5F1166AF5)
Полное имя                               : C:Безумные соседиA.Bras.Ouvert.2017.P.BDRip.72Op_KOSHARA.mkv
Формат                                   : Matroska
Версия формата                           : Version 2
Размер файла                             : 3,87 Гбайт
Продолжительность                        : 1 ч. 33 м.
Режим общего битрейта                    : Переменный
Общий поток                              : 5937 Кбит/сек
Дата кодирования                         : UTC 2017-08-11 16:17:19
Программа кодирования                    : mkvmerge v8.3.0 ('Over the Horizon') 64bit
Библиотека кодирования                   : libebml v1.3.1 + libmatroska v1.4.2

Видео
Идентификатор                            : 1
Формат                                   : AVC
Формат/Информация                        : Advanced Video Codec
Профиль формата                          : High@L4.1
Параметр CABAC формата                   : Да
Параметр ReFrames формата                : 9 кадров
Идентификатор кодека                     : V_MPEG4/ISO/AVC
Продолжительность                        : 1 ч. 33 м.
Вид битрейта                             : Переменный
Битрейт                                  : 5487 Кбит/сек
Максимальный битрейт                     : 6000 Кбит/сек
Ширина                                   : 1280 пикселей
Высота                                   : 690 пикселей
Соотношение сторон                       : 1,85:1
Режим частоты кадров                     : Постоянный
Частота кадров                           : 24,000 кадра/сек
Стандарт вещания                         : Component
Цветовое пространство                    : YUV
Субдискретизация насыщенности            : 4:2:0
Битовая глубина                          : 8 бит
Тип развёртки                            : Прогрессивная
Бит/(Пиксели*Кадры)                      : 0.259
Размер потока                            : 3,58 Гбайт (92%)
Default                                  : Да
Forced                                   : Нет
Цветовой диапазон                        : Limited
Основные цвета                           : BT.709
Характеристики трансфера                 : BT.709
Коэффициенты матрицы                     : BT.709

Аудио
Идентификатор                            : 2
Формат                                   : AC-3
Формат/Информация                        : Audio Coding 3
Параметр Endianness формата              : Big
Идентификатор кодека                     : A_AC3
Продолжительность                        : 1 ч. 33 м.
Вид битрейта                             : Постоянный
Битрейт                                  : 448 Кбит/сек
Каналы                                   : 2 канала
Расположение каналов                     : Front: L R
Частота                                  : 48,0 КГц
Частота кадров                           : 31,250 кадров/сек (1536 spf)
Битовая глубина                          : 16 бит
Метод сжатия                             : С потерями
Размер потока                            : 299 Мбайт (8%)
ServiceKind/St.ring                       : Complete Main
Default                                  : Да
Forced                                   : Нет



Скриншоты:
[+] Всего файлов в раздаче - 1:
A.Bras.Ouvert.2017.P.BDRip.72Op_KOSHARA.mkv3.87 GB

Текущая раздача:
ДатаКомментарии    РазмерПиры
2017-08-12  ↓  Безумные соседи / À bras ouverts (2017) BDRip 720p | L 1 Комментарии 3.87 GB ↑ 91 ↓ 96

Похожие раздачи по запросу - безумные:
2017-08-13  ↓  Безумные соседи / À bras ouverts (2017) HDRip | L 1.45 GB ↑ 295 ↓ 135
2017-02-25  ↓  Безумные семейки / Mad Families (2017) WEBRip | L 1.37 GB ↑ 439 ↓ 219
2016-01-15  ↓  Безумные преподы: Миссия в Лондон / Les profs 2 (2015) BDRip 720p | L2 4.49 GB ↑ 99 ↓ 80
2016-01-15  ↓  Безумные преподы: Миссия в Лондон / Les profs 2 (2015) HDRip | L2 1.46 GB ↑ 312 ↓ 57

Отзывы
tirsandking
Дата релиза в iTunes: 19 Августа 2017

Зарегистрируйтесь чтобы добавить комментарий.
Обратная связь