torrent.by
Поиск
Логин: Регистрация
Пароль: Восстановить пароль
Загрузка...

Стражи Галактики. Часть 2 / Guardians of the Galaxy Vol. 2 (2017) BDRip 1080p от New-Team & qqss44 | iTunes

 ↓  Скачать strazhi-galaktiki-chast-2-guardians-of-the-galaxy-vol-2017-bdrip-1080p-ot-new-team-qqss44-itunes.torrent
U Магнитная ссылка Размер: 9.70 GB Раздают: 300 Качают: 124 Добавлен: 2017-08-13 08:31:31
Стражи Галактики. Часть 2 / Guardians of the Galaxy Vol. 2 (2017) BDRip 1080p от New-Team & qqss44 | iTunes

Мы "ВКОНТАКТЕ"

Информация о фильме
Название: Стражи Галактики. Часть 2
Оригинальное название: Guardians of the Galaxy. Vol. 2
Год выпуска: 2017
Жанр: Фантастика, боевик, приключения, комедия
Режиссер: Джеймс Ганн
В ролях: Крис Прэтт, Зои Салдана, Дэйв Батиста, Вин Дизель, Брэдли Купер, Майкл Рукер, Карен Гиллан, Пом Клементьефф, Элизабет Дебики, Курт Расселл

О фильме:
Все в сборе: землянин Питер Квилл (Звездный Лорд), молчаливый громила Дракс, зеленокожая наемница Гамора, живое дерево Грут и говорящий енот. Герои не изменяют себе и с завидной регулярностью продолжают попадать в немыслимые ситуации, выпутываясь из них почти без ущерба (а иногда даже с пользой) для окружающих. На этот раз им предстоит раскрыть одну из самых главных тайн во всей Галактике: кто же на самом деле отец Питера Квилла?

Страна: США
Студия: Marvel
Продолжительность: 02:15:46
Перевод: Дублированный | iTunes

Файл
Формат: MKV, BDRip 1080p
Видео: MPEG-4 AVC, 9200 Кбит/с, 1920x804
Aудио#1: [RUS] AC3 | 48 KHz | 5.1 (Front: L С R Side: L R) + LFE | ~384 kbps
Aудио#2: [ENG] AC3 | 48 KHz | 5.1 (Front: L С R Side: L R) + LFE | ~640 kbps
Субтитры: русские (форсированные и полные), английские (полные)
Релиз от:


[+] МИ

Общее
Уникальный идентификатор                 : 250043956025698832142863208535201004619 (0xBC1CB6D7ED77E014B8483341DF35BC4B)
Полное имя                               : X:�0000Guardians.of.the.Galaxy.Vol.2.2017.BDRip.1080p.(qqss44).mkv
Формат                                   : Matroska
Версия формата                           : Version 2
Размер файла                             : 9,70 Гбайт
Продолжительность                        : 2 ч. 15 м.
Общий поток                              : 10,2 Мбит/сек
Название фильма                          : Guardians.of.the.Galaxy.Vol.2.2017.BDRip.1080p.(qqss44)
Дата кодирования                         : UTC 2017-08-12 13:43:48
Программа кодирования                    : mkvmerge v5.8.0 ('No Sleep / Pillow') built on Sep  2 2012 15:37:04
Библиотека кодирования                   : libebml v1.2.3 + libmatroska v1.3.0

Видео
Идентификатор                            : 1
Формат                                   : AVC
Формат/Информация                        : Advanced Video Codec
Профиль формата                          : High@L4.1
Параметр CABAC формата                   : Да
Параметр ReFrames формата                : 5 кадров
Идентификатор кодека                     : V_MPEG4/ISO/AVC
Продолжительность                        : 2 ч. 15 м.
Битрейт                                  : 9200 Кбит/сек
Ширина                                   : 1920 пикселей
Высота                                   : 804 пикселя
Соотношение сторон                       : 2,40:1
Режим частоты кадров                     : Постоянный
Частота кадров                           : 23,976 (24000/1001) кадра/сек
Цветовое пространство                    : YUV
Субдискретизация насыщенности            : 4:2:0
Битовая глубина                          : 8 бит
Тип развёртки                            : Прогрессивная
Бит/(Пиксели*Кадры)                      : 0.249
Размер потока                            : 8,53 Гбайт (88%)
Библиотека кодирования                   : x264 core 152 r2851kMod ba24899
Настройки программы                      : cabac=1 / ref=5 / deblock=1:0:0 / analyse=0x3:0x113 / me=umh / subme=11 / psy=1 / fade_compensate=0.00 / psy_rd=1.00:0.00 / mixed_ref=1 / me_range=32 / chroma_me=1 / trellis=2 / 8x8dct=1 / cqm=0 / deadzone=21,11 / fast_pskip=0 / chroma_qp_offset=-2 / threads=12 / lookahead_threads=2 / sliced_threads=0 / nr=0 / decimate=0 / interlaced=0 / bluray_compat=0 / constrained_intra=0 / bframes=9 / b_pyramid=2 / b_adapt=2 / b_bias=0 / direct=3 / weightb=1 / open_gop=0 / weightp=2 / keyint=240 / keyint_min=23 / scenecut=40 / intra_refresh=0 / rc_lookahead=40 / rc=2pass / mbtree=0 / bitrate=9200 / ratetol=1.0 / qcomp=0.70 / qpmin=0 / qpmax=69 / qpstep=4 / cplxblur=20.0 / qblur=0.5 / vbv_maxrate=50000 / vbv_bufsize=62500 / nal_hrd=none / filler=0 / ip_ratio=1.40 / pb_ratio=1.30 / aq=3:0.80
Язык                                     : English
Default                                  : Да
Forced                                   : Нет

Аудио #1
Идентификатор                            : 2
Формат                                   : AC-3
Формат/Информация                        : Audio Coding 3
Расширение режима                        : CM (complete main)
Параметр Endianness формата              : Big
Идентификатор кодека                     : A_AC3
Продолжительность                        : 2 ч. 15 м.
Вид битрейта                             : Постоянный
Битрейт                                  : 384 Кбит/сек
Каналы                                   : 6 каналов
Расположение каналов                     : Front: L C R, Side: L R, LFE
Частота                                  : 48,0 КГц
Частота кадров                           : 31,250 кадров/сек (1536 spf)
Метод сжатия                             : С потерями
Размер потока                            : 373 Мбайт (4%)
Язык                                     : Russian
Default                                  : Да
Forced                                   : Нет

Аудио #2
Идентификатор                            : 3
Формат                                   : AC-3
Формат/Информация                        : Audio Coding 3
Расширение режима                        : CM (complete main)
Параметр Endianness формата              : Big
Идентификатор кодека                     : A_AC3
Продолжительность                        : 2 ч. 15 м.
Вид битрейта                             : Постоянный
Битрейт                                  : 640 Кбит/сек
Каналы                                   : 6 каналов
Расположение каналов                     : Front: L C R, Side: L R, LFE
Частота                                  : 48,0 КГц
Частота кадров                           : 31,250 кадров/сек (1536 spf)
Метод сжатия                             : С потерями
Размер потока                            : 622 Мбайт (6%)
Язык                                     : English
Default                                  : Нет
Forced                                   : Нет

Текст #1
Идентификатор                            : 4
Формат                                   : UTF-8
Идентификатор кодека                     : S_TEXT/UTF8
Идентификатор кодека/Информация          : UTF-8 Plain Text
Заголовок                                : FORCED
Язык                                     : Russian
Default                                  : Да
Forced                                   : Нет

Текст #2
Идентификатор                            : 5
Формат                                   : UTF-8
Идентификатор кодека                     : S_TEXT/UTF8
Идентификатор кодека/Информация          : UTF-8 Plain Text
Заголовок                                : FULL
Язык                                     : Russian
Default                                  : Нет
Forced                                   : Нет

Текст #3
Идентификатор                            : 6
Формат                                   : UTF-8
Идентификатор кодека                     : S_TEXT/UTF8
Идентификатор кодека/Информация          : UTF-8 Plain Text
Заголовок                                : FULL
Язык                                     : English
Default                                  : Нет
Forced                                   : Нет

Меню
00:00:00.000                             : en:00:00:00.000
00:09:56.179                             : en:00:09:56.179
00:15:10.118                             : en:00:15:10.118
00:22:14.083                             : en:00:22:14.083
00:32:33.702                             : en:00:32:33.702
00:36:52.127                             : en:00:36:52.127
00:42:29.172                             : en:00:42:29.172
00:48:03.464                             : en:00:48:03.464
00:53:18.904                             : en:00:53:18.904
00:58:45.939                             : en:00:58:45.939
01:05:52.240                             : en:01:05:52.240
01:11:12.435                             : en:01:11:12.435
01:18:43.594                             : en:01:18:43.594
01:23:55.322                             : en:01:23:55.322
01:30:24.753                             : en:01:30:24.753
01:39:36.179                             : en:01:39:36.179
01:47:06.211                             : en:01:47:06.211
01:54:21.605                             : en:01:54:21.605
01:58:53.710                             : en:01:58:53.710
02:07:13.459                             : en:02:07:13.459




Скриншоты:
[+] Всего файлов в раздаче - 1:
Guardians.of.the.Galaxy.Vol.2.2017.BDRip.1080p.(qqss44).mkv9.70 GB

Текущая раздача:
ДатаКомментарии    РазмерПиры
2017-08-13  ↓  Стражи Галактики. Часть 2 / Guardians of the Galaxy Vol. 2 (2017) BDRip 1080p от New-Team & qqss44 | iTunes 9.70 GB ↑ 300 ↓ 124

Показать ещё раздачи по запросу - стражи:
2017-08-14  ↓  Стражи Галактики. Часть 2 / Guardians of the Galaxy Vol. 2 (2017) BDRip 720p от Scarabey | iTunes 5.22 GB ↑ 106 ↓ 29
2017-08-14  ↓  Стражи Галактики. Часть 2 / Guardians of the Galaxy Vol. 2 (2017) BDRip-HEVC 1080p | iTunes 4.26 GB ↑ 130 ↓ 46
2017-08-13  ↓  Стражи Галактики. Часть 2 / Guardians of the Galaxy. Vol. 2 (2017) BDRip-HEVC 1080p от ХиМиК | iTunes 4.67 GB ↑ 143 ↓ 115
2017-08-13  ↓  Стражи Галактики. Часть 2 / Guardians of the Galaxy Vol. 2 (2017) BDRip от ExKinoRay | iTunes 2.12 GB ↑ 121 ↓ 29
2017-08-13  ↓  Стражи Галактики. Часть 2 / Guardians of the Galaxy Vol. 2 (2017) BDRip от ExKinoRay | iTunes 1.46 GB ↑ 125 ↓ 47
2017-08-13  ↓  Стражи Галактики. Часть 2 / Guardians of the Galaxy Vol. 2 (2017) BDRip 720p от HELLYWOOD | iTunes 1Комментарии5.52 GB ↑ 342 ↓ 85
2017-08-12  ↓  Стражи Галактики. Часть 2 / Guardians of the Galaxy Vol. 2 (2017) BDRip-AVC от OlLanDGroup | iTunes 2.12 GB ↑ 54 ↓ 20

Отзывы
Зарегистрируйтесь чтобы добавить комментарий.
Обратная связь