↑↓Torrent.by
Поиск
Логин: Регистрация
Пароль: Восстановить пароль
Загрузка...

Форсаж 8 / The Fate of the Furious (2017) BDRip 1080p от New-Team & qqss44 | Лицензия

Скачать forsazh-8-the-fate-of-furious-2017-bdrip-1080p-ot-new-team-qqss44-licenziya.torrent
U Магнитная ссылка Размер: 9.79 GB Раздают: 146 Качают: 87 Добавлен: 2017-08-13 08:31:45
Форсаж 8 / The Fate of the Furious (2017) BDRip 1080p от New-Team & qqss44 | Лицензия

Мы "В КОНТАКТЕ"

Информация о фильме
Название: Форсаж 8
Оригинальное название: The Fate of the Furious
Год выпуска: 2017
Жанр: Боевик, триллер, криминал
Режиссер: Ф. Гэри Грей
В ролях: Вин Дизель, Дуэйн Джонсон, Джейсон Стэйтем, Мишель Родригес, Тайриз Гибсон, Лудакрис, Натали Эммануэль, Курт Расселл, Скотт Иствуд, Шарлиз Терон

О фильме:
Пристегните ремни — гонка продолжается. Гавана, Берлин, Нью-Йорк — для самой крутой команды в мире нет ничего невозможного, пока они вместе. Но когда на их пути окажется одна из самых красивых женщин на планете и по совместительству королева киберпреступности, дороги друзей разойдутся.

Страна: США
Студия: One Race Films, Original Film, Пифагор, Universal Pictures
Продолжительность: 02:15:57
Перевод: Дублированный | Лицензия

Файл
Формат: MKV, BDRip 1080p
Видео: MPEG-4 AVC, 9222 Кбит/с, 1920x804
Aудио#1: [RUS] AC3 | 48 KHz | 5.1 (Front: L С R Side: L R) + LFE | ~448 kbps
Aудио#2: [ENG] AC3 | 48 KHz | 5.1 (Front: L С R Side: L R) + LFE | ~640 kbps
Субтитры: русские (форсированные и полные), английские (полные)
Релиз от:


[+] МИ

Общее
Уникальный идентификатор                 : 192281369613421328702455987596873009001 (0x90A80B74A564FA12BBC8E1B97BD18769)
Полное имя                               : X:0000The.Fate.of.the.Furious.(2017).BDRip.1080p.(qqss44).mkv
Формат                                   : Matroska
Версия формата                           : Version 2
Размер файла                             : 9,79 Гбайт
Продолжительность                        : 2 ч. 15 м.
Общий поток                              : 10,3 Мбит/сек
Название фильма                          : The.Fate.of.the.Furious.(2017).BDRip.1080p.(qqss44)
Дата кодирования                         : UTC 2017-08-12 13:59:53
Программа кодирования                    : mkvmerge v5.8.0 ('No Sleep / Pillow') built on Sep  2 2012 15:37:04
Библиотека кодирования                   : libebml v1.2.3 + libmatroska v1.3.0

Видео
Идентификатор                            : 1
Формат                                   : AVC
Формат/Информация                        : Advanced Video Codec
Профиль формата                          : High@L4.1
Параметр CABAC формата                   : Да
Параметр ReFrames формата                : 5 кадров
Идентификатор кодека                     : V_MPEG4/ISO/AVC
Продолжительность                        : 2 ч. 15 м.
Битрейт                                  : 9222 Кбит/сек
Ширина                                   : 1920 пикселей
Высота                                   : 804 пикселя
Соотношение сторон                       : 2,40:1
Режим частоты кадров                     : Постоянный
Частота кадров                           : 23,976 (24000/1001) кадра/сек
Цветовое пространство                    : YUV
Субдискретизация насыщенности            : 4:2:0
Битовая глубина                          : 8 бит
Тип развёртки                            : Прогрессивная
Бит/(Пиксели*Кадры)                      : 0.249
Размер потока                            : 8,56 Гбайт (87%)
Заголовок                                : The.Fate.of.the.Furious
Библиотека кодирования                   : x264 core 150 r2833kMod df79067
Настройки программы                      : cabac=1 / ref=5 / deblock=1:-3:-3 / analyse=0x3:0x113 / me=umh / subme=11 / psy=1 / fade_compensate=0.00 / psy_rd=1.00:0.00 / mixed_ref=1 / me_range=32 / chroma_me=1 / trellis=2 / 8x8dct=1 / cqm=0 / deadzone=21,11 / fast_pskip=0 / chroma_qp_offset=-2 / threads=12 / lookahead_threads=2 / sliced_threads=0 / nr=0 / decimate=0 / interlaced=0 / bluray_compat=0 / constrained_intra=0 / bframes=9 / b_pyramid=2 / b_adapt=2 / b_bias=0 / direct=3 / weightb=1 / open_gop=0 / weightp=2 / keyint=240 / keyint_min=23 / scenecut=40 / intra_refresh=0 / rc_lookahead=40 / rc=2pass / mbtree=0 / bitrate=9222 / ratetol=1.0 / qcomp=0.70 / qpmin=0 / qpmax=69 / qpstep=4 / cplxblur=20.0 / qblur=0.5 / vbv_maxrate=50000 / vbv_bufsize=62500 / nal_hrd=none / filler=0 / ip_ratio=1.40 / pb_ratio=1.30 / aq=3:0.80
Язык                                     : English
Default                                  : Да
Forced                                   : Нет

Аудио #1
Идентификатор                            : 2
Формат                                   : AC-3
Формат/Информация                        : Audio Coding 3
Расширение режима                        : CM (complete main)
Параметр Endianness формата              : Big
Идентификатор кодека                     : A_AC3
Продолжительность                        : 2 ч. 15 м.
Вид битрейта                             : Постоянный
Битрейт                                  : 448 Кбит/сек
Каналы                                   : 6 каналов
Расположение каналов                     : Front: L C R, Side: L R, LFE
Частота                                  : 48,0 КГц
Частота кадров                           : 31,250 кадров/сек (1536 spf)
Метод сжатия                             : С потерями
Размер потока                            : 436 Мбайт (4%)
Язык                                     : Russian
Default                                  : Да
Forced                                   : Нет

Аудио #2
Идентификатор                            : 3
Формат                                   : AC-3
Формат/Информация                        : Audio Coding 3
Расширение режима                        : CM (complete main)
Параметр Endianness формата              : Big
Идентификатор кодека                     : A_AC3
Продолжительность                        : 2 ч. 15 м.
Вид битрейта                             : Постоянный
Битрейт                                  : 640 Кбит/сек
Каналы                                   : 6 каналов
Расположение каналов                     : Front: L C R, Side: L R, LFE
Частота                                  : 48,0 КГц
Частота кадров                           : 31,250 кадров/сек (1536 spf)
Метод сжатия                             : С потерями
Размер потока                            : 622 Мбайт (6%)
Язык                                     : English
Default                                  : Нет
Forced                                   : Нет

Текст #1
Идентификатор                            : 4
Формат                                   : UTF-8
Идентификатор кодека                     : S_TEXT/UTF8
Идентификатор кодека/Информация          : UTF-8 Plain Text
Заголовок                                : FORCED
Язык                                     : Russian
Default                                  : Да
Forced                                   : Нет

Текст #2
Идентификатор                            : 5
Формат                                   : UTF-8
Идентификатор кодека                     : S_TEXT/UTF8
Идентификатор кодека/Информация          : UTF-8 Plain Text
Заголовок                                : FULL
Язык                                     : Russian
Default                                  : Нет
Forced                                   : Нет

Текст #3
Идентификатор                            : 6
Формат                                   : UTF-8
Идентификатор кодека                     : S_TEXT/UTF8
Идентификатор кодека/Информация          : UTF-8 Plain Text
Заголовок                                : FULL
Язык                                     : English
Default                                  : Нет
Forced                                   : Нет

Меню
00:00:00.000                             : en:00:00:00.000
00:13:08.913                             : en:00:13:08.913
00:20:30.771                             : en:00:20:30.771
00:26:38.639                             : en:00:26:38.639
00:32:26.778                             : en:00:32:26.778
00:36:40.573                             : en:00:36:40.573
00:43:35.613                             : en:00:43:35.613
00:47:45.780                             : en:00:47:45.780
00:56:00.732                             : en:00:56:00.732
01:04:08.303                             : en:01:04:08.303
01:09:08.061                             : en:01:09:08.061
01:13:24.275                             : en:01:13:24.275
01:21:25.714                             : en:01:21:25.714
01:29:29.948                             : en:01:29:29.948
01:35:12.457                             : en:01:35:12.457
01:39:55.781                             : en:01:39:55.781
01:45:00.711                             : en:01:45:00.711
01:53:01.858                             : en:01:53:01.858
02:01:51.262                             : en:02:01:51.262
02:06:45.097                             : en:02:06:45.097




Скриншоты:
[+] Всего файлов в раздаче - 1:
The.Fate.of.the.Furious.(2017).BDRip.1080p.(qqss44).mkv9.79 GB

Текущая раздача:
ДатаКомментарии    РазмерПиры
2017-08-13 U Форсаж 8 / The Fate of the Furious (2017) BDRip 1080p от New-Team & qqss44 | Лицензия 9.79 GB ↑ 146 ↓ 87

Показать ещё раздачи по запросу - форсаж:
2017-08-15 U Форсаж 8 / The Fate of the Furious (2017) HDRip от Scarabey | Лицензия 2.18 GB ↑ 70 ↓ 27
2017-08-13 U Форсаж 8 / The Fate of the Furious (2017) BDRip от ExKinoRay | Лицензия 2.18 GB ↑ 103 ↓ 39
2017-08-13 U Форсаж 8 / The Fate of the Furious (2017) BDRip 720p от HELLYWOOD | Лицензия 1К5.76 GB ↑ 122 ↓ 61
2017-08-13 U Форсаж 8 / The Fate of the Furious (2017) BDRip от MegaPeer | Лицензия 1.46 GB ↑ 156 ↓ 55
2017-08-13 U Форсаж 8 / The Fate of the Furious (2017) BDRip 1080p | Лицензия 17.50 GB ↑ 100 ↓ 42
2017-08-13 U Форсаж 8 / The Fate of the Furious (2017) BDRip от ExKinoRay | Лицензия 2К1.46 GB ↑ 115 ↓ 38
2017-08-13 U Форсаж 8 / The Fate of the Furious (2017) BDRip-AVC от HELLYWOOD | Лицензия 1К2.91 GB ↑ 124 ↓ 54

Отзывы
Зарегистрируйтесь чтобы добавить комментарий.
Обратная связь
Copyleft ©