torrent.by
Поиск
Логин: Регистрация
Пароль: Восстановить пароль
Загрузка...

Студия Союз [01х01] (2017) WEB-DLRip от OlLanDGroup

 ↓  Скачать studiya-soyuz-01h01-2017-web-dlrip-ot-ollandgroup.torrent
U Магнитная ссылка Размер: 658.94 MB Раздают: 127 Качают: 64 Добавлен: 2017-08-13 18:14:41
Студия Союз [01х01] (2017) WEB-DLRip от OlLanDGroup

Оригинальное название: Студия Союз
Жанр:  ТВ-шоу, юмор, импровизация
Год выхода: 2017
Ведущие: Кирилл Коковкин, Айдар Гараев, Виктор Щетков, Александр Алымов, Артем Муратов, Елена Гущина

Описание: Участники шоу «Студия СОЮЗ» будут меряться музыкальностью, чтобы сделать зрителю очень смешно. По задумке сценаристов, на шоу работают постоянные ведущие, а также регулярно приглашаются другие звезды ТНТ. Их задача: обсудить и максимально удачно высмеять популярную в данный момент песню. На обсуждение выносится все до мелочей: текст, музыка, манера исполнения и другие аспекты музыкального выступления.

Выпущено: Россия, ТНТ
Продолжительность: 00:48:48
Язык: Русский

Файл
Кодек: XviD
Качество: WEB-DLRip
Видео: XviD, 1700 Кбит/с, 704x400
Аудио: AC3, 2 ch, 192 Кбит/с

Релиз:
[+] Инфо файл
Общее
Полное имя                               : D:ВидеоStudiya Soyuz, 2017.WEB-DLRip by OlLanDGroupStudiya Soyuz, 1 seriya(10.08.2017)WEB-DLRip by OlLanDGroup.avi
Формат                                   : AVI
Формат/Информация                        : Audio Video Interleave
Размер файла                             : 659 Мбайт
Продолжительность                        : 48 м.
Общий поток                              : 1902 Кбит/сек
Программа кодирования                    : VirtualDubMod 1.5.10.3 | www.virtualdub-fr.org || (build 2550/release)
Библиотека кодирования                   : VirtualDubMod build 2550/release

Видео
Идентификатор                            : 0
Формат                                   : MPEG-4 Visual
Профиль формата                          : Advanced Simple@L5
Параметр BVOP формата                    : 2
Параметр QPel формата                    : Нет
Параметр GMC формата                     : Без точки перехода
Параметр матрицы формата                 : Выборочная
Идентификатор кодека                     : XVID
Идентификатор кодека/Подсказка           : XviD
Продолжительность                        : 48 м.
Битрейт                                  : 1700 Кбит/сек
Ширина                                   : 704 пикселя
Высота                                   : 400 пикселей
Соотношение сторон                       : 16:9
Частота кадров                           : 25,000 кадров/сек
Цветовое пространство                    : YUV
Субдискретизация насыщенности            : 4:2:0
Битовая глубина                          : 8 бит
Тип развёртки                            : Прогрессивная
Метод сжатия                             : С потерями
Бит/(Пиксели*Кадры)                      : 0.241
Размер потока                            : 589 Мбайт (89%)
Библиотека кодирования                   : XviD 73

Аудио
Идентификатор                            : 1
Формат                                   : AC-3
Формат/Информация                        : Audio Coding 3
Расширение режима                        : CM (complete main)
Параметр Endianness формата              : Big
Идентификатор кодека                     : 2000
Продолжительность                        : 48 м.
Вид битрейта                             : Постоянный
Битрейт                                  : 192 Кбит/сек
Каналы                                   : 2 канала
Расположение каналов                     : Front: L R
Частота                                  : 48,0 КГц
Битовая глубина                          : 16 бит
Метод сжатия                             : С потерями
Размер потока                            : 66,5 Мбайт (10%)
Выравнивание                             : Разделение по промежуткам
Продолжительность промежутка             : 40  мс. (1,00 видеокадр)
Время предзагрузки промежутка            : 500  мс.




Скриншоты:
[+] Всего файлов в раздаче - 1:
Studiya Soyuz, 1 seriya(10.08.2017)WEB-DLRip by OlLanDGroup.avi658.94 MB

Текущая раздача:
ДатаКомментарии    РазмерПиры
2017-08-13  ↓  Студия Союз [01х01] (2017) WEB-DLRip от OlLanDGroup 658.94 MB ↑ 127 ↓ 64

Показать ещё раздачи по запросу - студия:
2017-08-19  ↓  Студия Союз [01х01-02] (2017) WEB-DL 720p от OlLanDGroup 2.49 GB ↑ 62 ↓ 89
2017-08-15  ↓  Студия Союз [01х01] (2017) WEB-DL 720p от OlLanDGroup 1.28 GB ↑ 85 ↓ 22
2017-07-04  ↓  Студия Маркел - Я, мужчина, не такая (2017) MP3 117.85 MB ↑ 86 ↓ 19
2017-05-11  ↓  Студия Эффектов 4.0 (2017) PC | RePack by KaktusTV 115.11 MB ↑ 717 ↓ 19
2017-04-19  ↓  Воин с золотым шестом / Pendekar Tongkat Emas (2014) BDRip | СВ Студия 1.45 GB ↑ 196 ↓ 9
2016-06-03  ↓  Сборник - Студия хитов шансона (2016) MP3 678.42 MB ↑ 233 ↓ 36
2015-11-28  ↓  Студия "HOUSE" - 50 взрывных мелодий на звонок 6 [Рингтоны] (2015) MP3 66.61 MB ↑ 726 ↓ 4

Отзывы
Зарегистрируйтесь чтобы добавить комментарий.
Обратная связь