↑↓Torrent.by
Поиск
Логин: Регистрация
Пароль: Восстановить пароль
Загрузка...

Новый Comedy Club. Дайджест. Мистический [от 18.08] (2017) WEB-DL 720p от OlLanDGroup

Скачать novyy-comedy-club-daydzhest-misticheskiy-ot-18-08-2017-web-dl-720p-ollandgroup.torrent
U Магнитная ссылка Размер: 1.21 GB Раздают: 167 Качают: 70 Добавлен: 2017-08-21 08:47:53
Новый Comedy Club. Дайджест. Мистический [от 18.08] (2017) WEB-DL 720p от OlLanDGroup

Оригинальное название: Comedy Club. Дайджест. Мистический
Жанр:  Юмористическое шоу
Дата выхода в эфир: 18.08.2017
Режиссер: Гарик Мартиросян
Ведущие: Гарик Харламов, Павел Воля
В ролях: Сергей Светлаков, Семен Слепаков, Группа USB - United Sexy Boys, Сергей Гореликов, Павел Воля, Тимур Батрутдинов, Виктор Васильев и Дмитрий Хрусталев, Дуэт «Рома и Леша», Зураб Матуа, Андрей Аверин, Дмитрий «Люсёк» Сорокин, Александр Незлобин и Элвис

Описание: «Comedy Club» был создан в 2005 году командой КВН «Новые армяне», в состав которой входили Артур Джанибекян, Артак Гаспарян, Артур Тумасян, Арташес Саркисян, Гарик Мартиросян и другие. Его идея была задумана ещё в 2001 году, когда Арташес Саркисян, побывав в США, увидел местный «Comedy Club». Временами стали появляться новые участники «Comedy Club», в основном из КВН. 23 апреля 2005 года «Comedy Club» впервые вышел в эфир телеканала ТНТ. Рейтинги программы стали бить все рекорды и это приносило программе большие доходы, на которые они стали делать другие проекты. Впоследствии они создали свою продюсерскую компанию «Comedy Club Production». 15 апреля 2007 года на ТНТ был показан сотый выпуск программы. Регулярно выходят новые выпуски и другие проекты - например спецвыпуски на Первом канале, юмористические фестивали и продюсирование участниками «Comedy Club» проекты других телепередач. 23 апреля 2010 года «Comedy Club» вышло с новой музыкой и обновлённым оформлением. Также «Comedy Club» выходит на каналах ICTV, НТВ+ - Мир и Comedy TV. Как всегда, Comedy Club собрал все самое смешное, чтобы оставаться самым крутым юмористическим шоу на телевидении. Камеры готовы? Музыканты готовы? Зрители готовы? Поехали!

Выпущено: ТНТ, "Comedy Club Production"
Продолжительность: 00:45:22
Язык: Русский

Файл
Кодек: AVC
Качество: WEB-DL 720p
Видео: x264, 3509 Кбит/с, 1280x720
Аудио: AC3, 2 ch, 192 Кбит/с

Релиз:
[+] Инфо файл
Общее
Уникальный идентификатор                 : 254769445848888001548718990661774834169 (0xBFAACF7ACCD69745A7E6A1ACF89979F9)
Полное имя                               : D:ВидеоComedy Club. Дайджест. Мистический(18.08.2017) WEB-DL720p by OlLanDGroup.mkv
Формат                                   : Matroska
Версия формата                           : Version 4 / Version 2
Размер файла                             : 1,21 Гбайт
Продолжительность                        : 46 м.
Общий поток                              : 3736 Кбит/сек
Дата кодирования                         : UTC 2017-08-20 18:12:04
Программа кодирования                    : mkvmerge v15.0.0 ('Duel with the Devil') 64-bit
Библиотека кодирования                   : libebml v1.3.5 + libmatroska v1.4.5
Attachment                               : Yes

Видео
Идентификатор                            : 1
Формат                                   : AVC
Формат/Информация                        : Advanced Video Codec
Профиль формата                          : High@L3.1
Параметр CABAC формата                   : Да
Параметр ReFrames формата                : 1 кадр
Параметр GOP формата                     : M=1, N=12
Идентификатор кодека                     : V_MPEG4/ISO/AVC
Продолжительность                        : 46 м.
Битрейт                                  : 3469 Кбит/сек
Ширина                                   : 1280 пикселей
Высота                                   : 720 пикселей
Соотношение сторон                       : 16:9
Режим частоты кадров                     : Постоянный
Частота кадров                           : 25,000 кадров/сек
Стандарт вещания                         : Component
Цветовое пространство                    : YUV
Субдискретизация насыщенности            : 4:2:0
Битовая глубина                          : 8 бит
Тип развёртки                            : Прогрессивная
Бит/(Пиксели*Кадры)                      : 0.151
Размер потока                            : 1,13 Гбайт (93%)
Default                                  : Да
Forced                                   : Нет
DURATION                                 : 00:46:32.560000000
NUMBER_OF_FRAMES                         : 69790
NUMBER_OF_BYTES                          : 1236065543
_STATISTICS_WRITING_APP                  : mkvmerge v15.0.0 ('Duel with the Devil') 64-bit
_STATISTICS_WRITING_DATE_UTC             : 2017-08-20 18:12:04
_STATISTICS_TAGS                         : BPS DURATION NUMBER_OF_FRAMES NUMBER_OF_BYTES

Аудио
Идентификатор                            : 2
Формат                                   : AC-3
Формат/Информация                        : Audio Coding 3
Расширение режима                        : CM (complete main)
Параметр Endianness формата              : Big
Идентификатор кодека                     : A_AC3
Продолжительность                        : 46 м.
Вид битрейта                             : Постоянный
Битрейт                                  : 192 Кбит/сек
Каналы                                   : 2 канала
Расположение каналов                     : Front: L R
Частота                                  : 48,0 КГц
Битовая глубина                          : 16 бит
Метод сжатия                             : С потерями
Размер потока                            : 63,9 Мбайт (5%)
Default                                  : Да
Forced                                   : Нет
DURATION                                 : 00:46:32.576000000
NUMBER_OF_FRAMES                         : 87268
NUMBER_OF_BYTES                          : 67021824
_STATISTICS_WRITING_APP                  : mkvmerge v15.0.0 ('Duel with the Devil') 64-bit
_STATISTICS_WRITING_DATE_UTC             : 2017-08-20 18:12:04
_STATISTICS_TAGS                         : BPS DURATION NUMBER_OF_FRAMES NUMBER_OF_BYTES




Скриншоты:
[+] Всего файлов в раздаче - 1:
Comedy Club. Дайджест. Мистический(18.08.2017) WEB-DL720p by OlLanDGroup.mkv1.21 GB

Текущая раздача:
ДатаКомментарии    РазмерПиры
2017-08-21 U Новый Comedy Club. Дайджест. Мистический [от 18.08] (2017) WEB-DL 720p от OlLanDGroup 1.21 GB ↑ 167 ↓ 70

Показать ещё раздачи по запросу - новый:
2017-10-16 U Новый Comedy Club в Барвихе [эфир от 06.10] (2017) WEB-DL 720p 1.20 GB ↑ 42 ↓ 16
2017-10-16 U Новый Comedy Club в Барвихе [эфир от 13.10] (2017) WEB-DL 720p 1.19 GB ↑ 132 ↓ 56
2017-10-08 U Новый Comedy Club в Барвихе [эфир от 06.10] (2017) HDTV 1080i 1К4.18 GB ↑ 504 ↓ 180
2017-10-07 U АК-47 - Новый (2017) MP3 89.66 MB ↑ 139 ↓ 22
2017-10-01 U Новый Comedy Club в Барвихе [эфир от 29.09] (2017) WEB-DL 720p 1.23 GB ↑ 1744 ↓ 491
2017-09-23 U Новый Comedy Club в Барвихе [эфир от 15.09] (2017) WEB-DL 720p 1.15 GB ↑ 252 ↓ 84
2017-09-23 U Новый Comedy Club в Барвихе [эфир от 22.09] (2017) WEB-DL 720p 1.22 GB ↑ 596 ↓ 375

Отзывы
Зарегистрируйтесь чтобы добавить комментарий.
Обратная связь
Copyleft ©