↑↓Torrent.by
Поиск
Логин: Регистрация
Пароль: Восстановить пароль
Загрузка...

Студия Союз [01х01-03] (2017) WEB-DL 720p от OlLanDGroup

Скачать studiya-soyuz-01h01-03-2017-web-dl-720p-ot-ollandgroup.torrent
U Магнитная ссылка Размер: 3.75 GB Раздают: 56 Качают: 75 Добавлен: 2017-08-26 08:43:44
Студия Союз [01х01-03] (2017) WEB-DL 720p от OlLanDGroup

Оригинальное название: Студия Союз
Жанр:  ТВ-шоу, юмор, импровизация
Год выхода: 2017
Ведущие: Кирилл Коковкин, Айдар Гараев, Виктор Щетков, Александр Алымов, Артем Муратов, Елена Гущина

Описание: Участники шоу «Студия СОЮЗ» будут меряться музыкальностью, чтобы сделать зрителю очень смешно. По задумке сценаристов, на шоу работают постоянные ведущие, а также регулярно приглашаются другие звезды ТНТ. Их задача: обсудить и максимально удачно высмеять популярную в данный момент песню. На обсуждение выносится все до мелочей: текст, музыка, манера исполнения и другие аспекты музыкального выступления.

Выпущено: Россия, ТНТ
Продолжительность: 3 х 00:48:48
Язык: Русский

Файл
Кодек: AVC
Качество: WEB-DL 720p
Видео: x264, 3509 Кбит/с, 1280x720
Аудио: AC3, 2 ch, 192 Кбит/с

Релиз:
[+] Инфо файл
Общее
Уникальный идентификатор                 : 177585353129834962435383801167295582644 (0x8599B1E6C8AE9D57AA2F4EB87F3491B4)
Полное имя                               : D:ВидеоStudiya Soyuz. 2017.WEB-DL720p by OlLanDGroupStudiya Soyuz, 1 seriya(10.08.2017)WEB-DL720p by OlLanDGroup.mkv
Формат                                   : Matroska
Версия формата                           : Version 4 / Version 2
Размер файла                             : 1,28 Гбайт
Продолжительность                        : 48 м.
Общий поток                              : 3779 Кбит/сек
Название фильма                          : Studiya Soyuz, 1 seriya(10.08.2017)WEB-DL720p by OlLanDGroup
Дата кодирования                         : UTC 2017-08-14 16:15:02
Программа кодирования                    : mkvmerge v14.0.0 ('Flow') 64bit
Библиотека кодирования                   : libebml v1.3.4 + libmatroska v1.4.5
DURATION                                 : 00:48:26.816000000
NUMBER_OF_FRAMES                         : 90838
NUMBER_OF_BYTES                          : 69763584
_STATISTICS_WRITING_APP                  : mkvmerge v14.0.0 ('Flow') 64bit
_STATISTICS_WRITING_DATE_UTC             : 2017-08-14 16:15:02
_STATISTICS_TAGS                         : BPS DURATION NUMBER_OF_FRAMES NUMBER_OF_BYTES
Attachment                               : Yes

Видео
Идентификатор                            : 1
Формат                                   : AVC
Формат/Информация                        : Advanced Video Codec
Профиль формата                          : High@L3.1
Параметр CABAC формата                   : Да
Параметр ReFrames формата                : 1 кадр
Параметр GOP формата                     : M=1, N=12
Идентификатор кодека                     : V_MPEG4/ISO/AVC
Продолжительность                        : 48 м.
Битрейт                                  : 3512 Кбит/сек
Ширина                                   : 1280 пикселей
Высота                                   : 720 пикселей
Соотношение сторон                       : 16:9
Режим частоты кадров                     : Постоянный
Частота кадров                           : 25,000 кадров/сек
Стандарт вещания                         : Component
Цветовое пространство                    : YUV
Субдискретизация насыщенности            : 4:2:0
Битовая глубина                          : 8 бит
Тип развёртки                            : Прогрессивная
Бит/(Пиксели*Кадры)                      : 0.152
Размер потока                            : 1,19 Гбайт (93%)
Язык                                     : Russian
Default                                  : Да
Forced                                   : Нет

Аудио
Идентификатор                            : 2
Формат                                   : AC-3
Формат/Информация                        : Audio Coding 3
Расширение режима                        : CM (complete main)
Параметр Endianness формата              : Big
Идентификатор кодека                     : A_AC3
Продолжительность                        : 48 м.
Вид битрейта                             : Постоянный
Битрейт                                  : 192 Кбит/сек
Каналы                                   : 2 канала
Расположение каналов                     : Front: L R
Частота                                  : 48,0 КГц
Битовая глубина                          : 16 бит
Метод сжатия                             : С потерями
Размер потока                            : 66,5 Мбайт (5%)
Default                                  : Да
Forced                                   : Нет




Скриншоты:
[+] Всего файлов в раздаче - 3:
Studiya Soyuz, 1 seriya(10.08.2017)WEB-DL720p by OlLanDGroup.mkv1.28 GB
Studiya Soyuz, 2 seriya(17.08.2017)WEB-DL720p by OlLanDGroup.mkv1.21 GB
Studiya Soyuz, 3 seriya(24.08.2017)WEB-DL720p by OlLanDGroup.mkv1.27 GB

Текущая раздача:
ДатаКомментарии    РазмерПиры
2017-08-26 U Студия Союз [01х01-03] (2017) WEB-DL 720p от OlLanDGroup 2 К 3.75 GB ↑ 56 ↓ 75

Показать ещё раздачи по запросу - студия:
2017-09-25 U Студия Союз [01х01-06] (2017) WEB-DLRip от OlLanDGroup 3.72 GB ↑ 61 ↓ 111
2017-09-10 U Студия Союз [01х01-05] (2017) WEB-DLRip от OlLanDGroup 3.08 GB ↑ 85 ↓ 171
2017-09-04 U Студия Союз [01х01-04] (2017) WEB-DL 720p от OlLanDGroup 5.06 GB ↑ 67 ↓ 69
2017-08-26 U Студия Союз [01х01-03] (2017) WEB-DLRip от OlLanDGroup 1.86 GB ↑ 45 ↓ 115
2017-08-19 U Студия Союз [01х01-02] (2017) WEB-DL 720p от OlLanDGroup 2.49 GB ↑ 68 ↓ 98
2017-08-15 U Студия Союз [01х01] (2017) WEB-DL 720p от OlLanDGroup 1.28 GB ↑ 92 ↓ 23
2017-08-13 U Студия Союз [01х01] (2017) WEB-DLRip от OlLanDGroup 658.94 MB ↑ 291 ↓ 65

Отзывы
Bogdan
КВН стал кастингом для канала ТНТ ?

Xmapa
трэш и угар, но в целом сортирный юмор. Вообще кто придумал описание, такое впечатление, что поработал гугл переводчик.

Зарегистрируйтесь чтобы добавить комментарий.
Обратная связь
Copyleft ©