↑↓Torrent.by
Поиск
Логин: Регистрация
Пароль: Восстановить пароль
Загрузка...

Чемпионат Мира 2018 / Чехия - Германия / Матч ТВ HD [01.09.2017, Футбол, HDTVRip/720p]

Скачать chempionat-mira-2018-chehiya-germaniya-match-tv-hd-01-09-2017-futbol-hdtvrip-720p.torrent
U Магнитная ссылка Размер: 3.12 GB Раздают: 77 Качают: 25 Добавлен: 2017-09-02 10:53:21
Чемпионат Мира 2018 / Отборочный турнир / Европа / Группа C / 7-й тур / Чехия - Германия / Матч ТВ HD [01.09.2017, Футбол, HDTVRip/720p/50fps, MKV/H.264, RU/INT]

Чемпионат Мира 2018. Отборочный турнир
Европа / Группа C / 7-й тур
Чехия - Германия


Дата: 01.09.2017
Вид спорта: Футбол
Комментарий: Профессиональный
Язык комментариев: Русский (Кривохарченко) / Интершум
Описание: Чемпионат Мира 2018 / Отборочный турнир / Европа / Группа C / 7-й тур / Чехия - Германия.
Автор рипа: Злобный Санчез

Качество: HDTVRip
Формат: MKV
Видео кодек: H.264
Аудио кодек: AC3
Видео: MPEG4 Video (H264) 1280x720 (16:9) 50fps 4000kbps
Аудио: Dolby AC3 48000Hz stereo 192kbps

[+] Продолжительность
01:39:41



[+] Счет
Чехия 1 – 2 Германия



[+] MediaInfo


GeneralUnique ID                                : 98457526029726537198921745293583048202 (0x4A123AD1C10CDD2A4C1C768FD05FDE0A)Complete name                            : W:\раздачи\Чемпионат Мира 2018. Отборочный турнир. Европа. Группа C. 7-й тур. Чехия – Германия. Rutracker.org.mkvFormat                                   : MatroskaFormat version                           : Version 2File size                                : 3.12 GiBDuration                                 : 1 h 39 minOverall bit rate                         : 4 479 kb/sWriting application                      : Lavf54.63.104Writing library                          : Lavf54.63.104
VideoID                                       : 1Format                                   : AVCFormat/Info                              : Advanced Video CodecFormat profile                           : High@L4.1Format settings, CABAC                   : YesFormat settings, RefFrames               : 4 framesCodec ID                                 : V_MPEG4/ISO/AVCDuration                                 : 1 h 39 minBit rate                                 : 4 006 kb/sWidth                                    : 1 280 pixelsHeight                                   : 720 pixelsDisplay aspect ratio                     : 16:9Frame rate mode                          : ConstantFrame rate                               : 50.000 FPSColor space                              : YUVChroma subsampling                       : 4:2:0Bit depth                                : 8 bitsScan type                                : ProgressiveBits/(Pixel*Frame)                       : 0.087Stream size                              : 2.79 GiB (89%)Default                                  : NoForced                                   : NoColor range                              : LimitedColor primaries                          : BT.709Transfer characteristics                 : BT.709Matrix coefficients                      : BT.709
Audio #1ID                                       : 2Format                                   : AC-3Format/Info                              : Audio Coding 3Format settings, Endianness              : BigCodec ID                                 : A_AC3Duration                                 : 1 h 39 minBit rate mode                            : ConstantBit rate                                 : 192 kb/sChannel(s)                               : 2 channelsChannel positions                        : Front: L RSampling rate                            : 48.0 kHzFrame rate                               : 31.250 FPS (1536 SPF)Bit depth                                : 16 bitsCompression mode                         : LossyStream size                              : 137 MiB (4%)Language                                 : RussianService kind                             : Complete MainDefault                                  : YesForced                                   : No
Audio #2ID                                       : 3Format                                   : AC-3Format/Info                              : Audio Coding 3Format settings, Endianness              : BigCodec ID                                 : A_AC3Duration                                 : 1 h 39 minBit rate mode                            : ConstantBit rate                                 : 192 kb/sChannel(s)                               : 2 channelsChannel positions                        : Front: L RSampling rate                            : 48.0 kHzFrame rate                               : 31.250 FPS (1536 SPF)Bit depth                                : 16 bitsCompression mode                         : LossyStream size                              : 137 MiB (4%)Language                                 : EnglishService kind                             : Complete MainDefault                                  : NoForced                                   : No




Скриншоты:
[+] Всего файлов в раздаче - 1:
Чемпионат Мира 2018. Отборочный турнир. Европа. Группа C. 7-й тур. Чехия – Германия. Rutracker.org.mkv3.12 GB

Текущая раздача:
ДатаКомментарии    РазмерПиры
2017-09-02 U Чемпионат Мира 2018 / Чехия - Германия / Матч ТВ HD [01.09.2017, Футбол, HDTVRip/720p] 3.12 GB ↑ 77 ↓ 25

Показать ещё раздачи по запросу - чемпионат:
2017-10-08 U Футбол. Чемпионат Мира 2018. Отборочный турнир. Европа. 9-й тур. Обзор матчей. 2-й день [06.10] (2017) HDTVRip 702.30 MB ↑ 66 ↓ 11
2017-10-03 U Футбол. Чемпионат Англии 2017-18. 7-й тур. Обзор тура [02.10] (2017) HDTVRip 720p | 50 fps 1.38 GB ↑ 69 ↓ 37
2017-09-26 U Футбол. Чемпионат Англии 2017-18. 6-й тур. Обзор тура [25.09] (2017) SATRip-AVC 641.62 MB ↑ 64 ↓ 20
2017-09-10 U Чемпионат России 2017-2018 / 9-й тур / Спартак - Рубин / Наш Футбол HD [09.09.2017, Футбол, HDTVRip/400p] 1.83 GB ↑ 27 ↓ 9
2017-09-05 U Футбол. Чемпионат Мира 2018. Отборочный турнир. Европа. 8-й тур. Обзор матчей. 2-й день [04.09] (2017) HDTVRip 747.42 MB ↑ 60 ↓ 16
2017-09-04 U Чемпионат Мира 2018 / Отборочный турнир / Европа / Обзор / Матч! Футбол 1 HD [02.09.2017, HDTV/1080i] 2.51 GB ↑ 17 ↓ 6
2017-09-03 U Футбол. Чемпионат Мира 2018. Отборочный турнир. Европа. 7-й тур. Обзор матчей. 3-й день [02.09] (2017) HDTVRip 722.87 MB ↑ 172 ↓ 41

Отзывы
Зарегистрируйтесь чтобы добавить комментарий.
Обратная связь
Copyleft ©