↑↓Torrent.by
Поиск
Логин: Регистрация
Пароль: Восстановить пароль
Загрузка...

Танцы [04х01-04] (2017) WEB-DLRip от OlLanDGroup

Скачать tancy-04h01-04-2017-web-dlrip-ot-ollandgroup.torrent
U Магнитная ссылка Размер: 5.09 GB Раздают: 120 Качают: 368 Добавлен: 2017-09-10 19:23:10
Танцы [04х01-04] (2017) WEB-DLRip от OlLanDGroup

Оригинальное название: Танцы.
Год выпуска: 2017
Жанр:  Реалити-шоу, танцы, развлекательный, хореография
Режиссер: Анатолий Шпульников
В ролях: Татьяна Денисова, Сергей Шестепёров (Мигель)
Ведущий: Ляйсан Утяшева

Выпущено: Россия, Comedy Club Production, Телеканал ТНТ
Продолжительность: по 01:35:48
Язык: Русский

О фильме: Танцы 4 сезон в очередном сезоне любимого миллионами танцевального проекта нас ждет противостояние полов, потому что Егора Дружинина больше нет в числе членов жюри. Его место заняла знаменитый хореограф Татьяна Денисова. С появлением нового судьи будут связаны крупные изменения новых деталей проекта. В проекте окажутся хореографы Татьяны, которые станут трудиться в ее команде. Еще Татьяна Денисова добавит в критерии отбора участников новые фишки, в частности в испытания хореографией. Также у шоу будут полностью новые декорации и новая графика. Как будто это будет не очередной сезон, а новое шоу со сходным названием.

Качество: WEB-DLRip
Видео: XviD, 1700 Кбит/с, 704x400
Аудио: AC3, 2 ch, 192 Кбит/с

Релиз:
[+] Инфо файл
Общее
Полное имя                               : D:TempТанцы.4 сезон.2017.WEB-DLRip by OlLanDGroup�1.Танцы.s04.(19.08.2017)WEB-DLRip by OlLanDGroup.avi
Формат                                   : AVI
Формат/Информация                        : Audio Video Interleave
Размер файла                             : 1,23 Гбайт
Продолжительность                        : 1 ч. 32 м.
Общий поток                              : 1901 Кбит/сек
Программа кодирования                    : VirtualDubMod 1.5.10.3 | www.virtualdub-fr.org || (build 2550/release)
Библиотека кодирования                   : VirtualDubMod build 2550/release

Видео
Идентификатор                            : 0
Формат                                   : MPEG-4 Visual
Профиль формата                          : Advanced Simple@L5
Параметр BVOP формата                    : 2
Параметр QPel формата                    : Нет
Параметр GMC формата                     : Без точки перехода
Параметр матрицы формата                 : Выборочная
Идентификатор кодека                     : XVID
Идентификатор кодека/Подсказка           : XviD
Продолжительность                        : 1 ч. 32 м.
Битрейт                                  : 1699 Кбит/сек
Ширина                                   : 704 пикселя
Высота                                   : 400 пикселей
Соотношение сторон                       : 16:9
Частота кадров                           : 25,000 кадров/сек
Цветовое пространство                    : YUV
Субдискретизация насыщенности            : 4:2:0
Битовая глубина                          : 8 бит
Тип развёртки                            : Прогрессивная
Метод сжатия                             : С потерями
Бит/(Пиксели*Кадры)                      : 0.241
Размер потока                            : 1,10 Гбайт (89%)
Библиотека кодирования                   : XviD 73

Аудио
Идентификатор                            : 1
Формат                                   : AC-3
Формат/Информация                        : Audio Coding 3
Расширение режима                        : CM (complete main)
Параметр Endianness формата              : Big
Идентификатор кодека                     : 2000
Продолжительность                        : 1 ч. 32 м.
Вид битрейта                             : Постоянный
Битрейт                                  : 192 Кбит/сек
Каналы                                   : 2 канала
Расположение каналов                     : Front: L R
Частота                                  : 44,1 КГц
Битовая глубина                          : 16 бит
Метод сжатия                             : С потерями
Размер потока                            : 128 Мбайт (10%)
Выравнивание                             : Разделение по промежуткам
Продолжительность промежутка             : 40  мс. (1,00 видеокадр)
Время предзагрузки промежутка            : 500  мс.




Скриншоты:
[+] Всего файлов в раздаче - 4:
01.Танцы.s04.(19.08.2017)WEB-DLRip by OlLanDGroup.avi1.23 GB
02.Танцы.s04.(26.08.2017)WEB-DLRip by OlLanDGroup.avi1.30 GB
03.Танцы.s04.(02.09.2017)WEB-DLRip by OlLanDGroup.avi1.32 GB
04.Танцы.s04.Самара.(09.09.2017) WEB-DLRip by OlLanDGroup.avi1.24 GB

Текущая раздача:
ДатаКомментарии    РазмерПиры
2017-09-10 U Танцы [04х01-04] (2017) WEB-DLRip от OlLanDGroup 5.09 GB ↑ 120 ↓ 368

Показать ещё раздачи по запросу - танцы:
Вчера U Танцы [эфир от 21.10] (2017) SATRip 1.21 GB ↑ 75 ↓ 31
2017-10-21 U Грязные танцы индийской улицы (2017) WEBRip 720p | P 619.29 MB ↑ 39 ↓ 7
2017-10-09 U Танцы [04х01-08] (2017) WEB-DLRip от OlLanDGroup 10.12 GB ↑ 41 ↓ 198
2017-09-18 U Танцы [04х01-05] (2017) WEB-DLRip от OlLanDGroup 6.35 GB ↑ 91 ↓ 203
2017-09-17 U Танцы [04х01-05] (2017) WEB-DL 720p от OlLanDGroup 12.46 GB ↑ 141 ↓ 1105
2017-09-10 U Танцы насмерть (2017) BDRip | Лицензия 1.45 GB ↑ 154 ↓ 100
2017-09-10 U Танцы [04х01-04] (2017) WEB-DL 720p от OlLanDGroup 9.95 GB ↑ 57 ↓ 599

Отзывы
Зарегистрируйтесь чтобы добавить комментарий.
Обратная связь
Copyleft ©