↑↓Torrent.by
Поиск
Логин: Регистрация
Пароль: Восстановить пароль
Загрузка...

Импровизация [03х01-09] (2017) WEB-DLRip от OlLanDGroup

Скачать improvizaciya-03h01-09-2017-web-dlrip-ot-ollandgroup.torrent
U Магнитная ссылка Размер: 5.82 GB Раздают: 39 Качают: 72 Добавлен: 2017-09-11 05:21:46
Импровизация [03х01-09] (2017) WEB-DLRip от OlLanDGroup

Оригинальное название:  Импровизация  
Жанр:  ТВ-шоу, юмор
Год выхода: 2017
Режиссер: Гарик Мартиросян
Ведущий: Павел Воля

Описание: «Импровизация» — это новое непредсказуемое комедийное шоу от Comedy Club Production. В нём нет сценария и всё, происходящее на сцене, придумывается участниками на ходу. Под управлением ведущего Павла Воли четыре комика и один звездный гость оказываются в самых странных ситуациях — и выбираются из них с юмором. Прежде, чем попасть на экран, четыре участника «Импровизации» (Арсений Попов, Дима Позов, Сергей Матвиенко и Антон Шастун) несколько лет совершенствовали этот формат на клубных вечеринках. Каждый выпуск шоу разбит на части, в которых действуют свои правила: например, в одной комики должны разговаривать только вопросами, в другой — ходят с завязанными глазами по комнате с мышеловками, в третьей — шутят с электрошокерами на руках, которые бьют их током. В каждом шоу к комикам присоединяется приглашенная звезда. Только в «Импровизации» можно заставить певицу Сати Казанову выслушивать, как комики дают интервью от её лица, Ольгу Бузову — подавать реплики, как суфлер, а Мигеля угадывать, кем он был в прошлой жизни. «Импровизация» — шоу для тех, кому надоел предсказуемый юмор и кто хочет посмотреть, каково комикам на сцене без сценария и заготовленных шуток. «Комедия импровизации — весьма распространенный формат в Европе, в Америке. В каждом вузе, в каждой школе есть импровизационная команда. При этом это традиционный жанр, он уходит корнями в итальянский театр масок», — говорит креативный продюсер шоу Стас Шеминов. Импровизация — вершина комедийного спорта, уважаемый жанр, которым мечтаю заниматься многие комики, но который требует постоянной практики. Участники «Импровизации» посвятили этому жанру несколько лет — и стали настоящими мастерами.

Выпущено: ТНТ, "Comedy Club Production"
Продолжительность: по 00:48:00 серия
Язык: Русский

Файл
Кодек: XviD
Качество: WEB-DLRip
Видео: XviD, 1700 Кбит/с, 704x400
Аудио: AC3, 2 ch, 192 Кбит/с

Релиз:   Rip by:
[+] Инфо файл
Общее
Полное имя                               : D:ВидеоИмпровизация(Season 03).2017.WEB-DLRip.OlLanDGroupИмпровизация 3.Серия 01.2017. WEB-DLRip.OlLanDGroup.avi
Формат                                   : AVI
Формат/Информация                        : Audio Video Interleave
Размер файла                             : 670 Мбайт
Продолжительность                        : 49 м.
Общий поток                              : 1901 Кбит/сек
Программа кодирования                    : VirtualDubMod 1.5.10.3 | www.virtualdub-fr.org || (build 2550/release)
Библиотека кодирования                   : VirtualDubMod build 2550/release

Видео
Идентификатор                            : 0
Формат                                   : MPEG-4 Visual
Профиль формата                          : Advanced Simple@L5
Параметр BVOP формата                    : 2
Параметр QPel формата                    : Нет
Параметр GMC формата                     : Без точки перехода
Параметр матрицы формата                 : Выборочная
Идентификатор кодека                     : XVID
Идентификатор кодека/Подсказка           : XviD
Продолжительность                        : 49 м.
Битрейт                                  : 1700 Кбит/сек
Ширина                                   : 704 пикселя
Высота                                   : 400 пикселей
Соотношение сторон                       : 16:9
Частота кадров                           : 25,000 кадров/сек
Цветовое пространство                    : YUV
Субдискретизация насыщенности            : 4:2:0
Битовая глубина                          : 8 бит
Тип развёртки                            : Прогрессивная
Метод сжатия                             : С потерями
Бит/(Пиксели*Кадры)                      : 0.241
Размер потока                            : 599 Мбайт (89%)
Библиотека кодирования                   : XviD 73

Аудио
Идентификатор                            : 1
Формат                                   : AC-3
Формат/Информация                        : Audio Coding 3
Расширение режима                        : CM (complete main)
Параметр Endianness формата              : Big
Идентификатор кодека                     : 2000
Продолжительность                        : 49 м.
Вид битрейта                             : Постоянный
Битрейт                                  : 192 Кбит/сек
Каналы                                   : 2 канала
Расположение каналов                     : Front: L R
Частота                                  : 48,0 КГц
Битовая глубина                          : 16 бит
Метод сжатия                             : С потерями
Размер потока                            : 67,7 Мбайт (10%)
Выравнивание                             : Разделение по промежуткам
Продолжительность промежутка             : 40  мс. (1,00 видеокадр)
Время предзагрузки промежутка            : 500  мс.




Скриншоты:
[+] Всего файлов в раздаче - 9:
Импровизация 3.Серия 01.2017. WEB-DLRip.OlLanDGroup.avi670.39 MB
Импровизация 3.Серия 02.2017. WEB-DLRip.OlLanDGroup.avi633.07 MB
Импровизация 3.Серия 03.2017. WEB-DLRip.OlLanDGroup.avi664.18 MB
Импровизация 3.Серия 04.2017. WEB-DLRip.OlLanDGroup.avi670.58 MB
Импровизация 3.Серия 05.2017. WEB-DLRip.OlLanDGroup.avi650.30 MB
Импровизация 3.Серия 06.2017. WEB-DLRip.OlLanDGroup.avi657.54 MB
Импровизация 3.Серия 07.2017. WEB-DLRip.OlLanDGroup.avi684.17 MB
Импровизация 3.Серия 08.2017. WEB-DLRip.OlLanDGroup.avi651.61 MB
Импровизация 3.Серия 09.2017. WEB-DLRip.OlLanDGroup.avi682.11 MB

Текущая раздача:
ДатаКомментарии    РазмерПиры
2017-09-11 U Импровизация [03х01-09] (2017) WEB-DLRip от OlLanDGroup 5.82 GB ↑ 39 ↓ 72

Похожие раздачи по запросу - импровизация:
2017-08-26 U Импровизация [03х08] (2017) SATRip 642.56 MB ↑ 52 ↓ 5
2017-08-22 U Импровизация [03х01-07] (2017) WEB-DLRip от OlLanDGroup 4.52 GB ↑ 42 ↓ 29
2017-06-25 U Импровизация [03х01-04] (2017) WEB-DLRip от OlLanDGroup 2.58 GB ↑ 92 ↓ 153
2017-06-18 U Импровизация [03х01-03] (2017) WEB-DLRip от OlLanDGroup 1.92 GB ↑ 59 ↓ 75
2017-06-14 U Импровизация [03х01-02] (2017) WEB-DLRip от OlLanDGroup 1К1.27 GB ↑ 87 ↓ 12

Отзывы
Зарегистрируйтесь чтобы добавить комментарий.
Обратная связь
Copyleft ©