↑↓Torrent.by
Поиск
Логин: Регистрация
Пароль: Восстановить пароль
Загрузка...

Однажды в России [06x01-02] (2017) WEB-DLRip от OlLanDGroup

Скачать odnazhdy-v-rossii-06x01-02-2017-web-dlrip-ot-ollandgroup.torrent
U Магнитная ссылка Размер: 1.21 GB Раздают: 69 Качают: 44 Добавлен: 2017-09-13 05:22:34
Однажды в России [06x01-02] (2017) WEB-DLRip от OlLanDGroup

Оригинальное название: Однажды в России
Год выхода: 2017
Жанр:  ТВ-шоу, юмор
Выпущено: Россия, ТНТ, Comedy Club Production
В ролях:Игорь Ласточкин, Ирина Чеснокова, Михаил Стогниенко, Давид Цаллаев, Заур Байцаев, Теймураз Тания, Екатерина Моргунова, Максим Киселёв, Денис Дорохов, Александр Пташенчук, Азамат Мусагалиев, Ольга Картункова

Описание фильма:
Самое острое сатирическое шоу на отечественном телевидении возвращается с новыми выпусками. Все, что нужно знать о России и чего никогда не покажут в новостях. Московский ОМОН ловит в центре столицы покемонов, российские ученые впервые в мире провели операцию по пересадке сознания, в России снимут адаптацию сериала «Игры престолов» и откроют филиал школы магов Хогвардс. Все это и многое другое в новых выпусках «Однажды в России», — шоу, сделанном на невероятном для российского телевидения техническом уровне, и продолжающем традицию сатиры и социального юмора на ТНТ.

Информация о файле:
Качество: WEB-DLRip
Свойства видео: 704x400 (16:9), 25 fps, XviD, 1700 Kbps, 0.213 bit/pixel
Свойства аудио: 48,0 kHz, Audio Coding 3, 2 ch, ~192 kbps avg

Продолжительность:  ~ 00:50:00
Язык: Русский

Релиз:   Rip by:
[+] Инфо файл
Общее
Полное имя                               : D:ВидеоOdnazhdy.v.Rossii 6.2017.WEB-DLRip.OlLanDGroupOdnazhdy.v.Rossii 5.seriya 01.2017.WEB-DLRip.OlLanDGroup.avi
Формат                                   : AVI
Формат/Информация                        : Audio Video Interleave
Размер файла                             : 607 Мбайт
Продолжительность                        : 44 м.
Общий поток                              : 1901 Кбит/сек
Программа кодирования                    : VirtualDubMod 1.5.10.3 | www.virtualdub-fr.org || (build 2550/release)
Библиотека кодирования                   : VirtualDubMod build 2550/release

Видео
Идентификатор                            : 0
Формат                                   : MPEG-4 Visual
Профиль формата                          : Advanced Simple@L5
Параметр BVOP формата                    : 2
Параметр QPel формата                    : Нет
Параметр GMC формата                     : Без точки перехода
Параметр матрицы формата                 : Выборочная
Идентификатор кодека                     : XVID
Идентификатор кодека/Подсказка           : XviD
Продолжительность                        : 44 м.
Битрейт                                  : 1699 Кбит/сек
Ширина                                   : 704 пикселя
Высота                                   : 400 пикселей
Соотношение сторон                       : 16:9
Частота кадров                           : 25,000 кадров/сек
Цветовое пространство                    : YUV
Субдискретизация насыщенности            : 4:2:0
Битовая глубина                          : 8 бит
Тип развёртки                            : Прогрессивная
Метод сжатия                             : С потерями
Бит/(Пиксели*Кадры)                      : 0.241
Размер потока                            : 543 Мбайт (89%)
Библиотека кодирования                   : XviD 73

Аудио
Идентификатор                            : 1
Формат                                   : AC-3
Формат/Информация                        : Audio Coding 3
Расширение режима                        : CM (complete main)
Параметр Endianness формата              : Big
Идентификатор кодека                     : 2000
Продолжительность                        : 44 м.
Вид битрейта                             : Постоянный
Битрейт                                  : 192 Кбит/сек
Каналы                                   : 2 канала
Расположение каналов                     : Front: L R
Частота                                  : 44,1 КГц
Битовая глубина                          : 16 бит
Метод сжатия                             : С потерями
Размер потока                            : 61,3 Мбайт (10%)
Выравнивание                             : Разделение по промежуткам
Продолжительность промежутка             : 40  мс. (1,00 видеокадр)
Время предзагрузки промежутка            : 500  мс.




Скриншоты:
[+] Всего файлов в раздаче - 2:
Odnazhdy.v.Rossii 6.seriya 01.2017.WEB-DLRip.OlLanDGroup.avi607.42 MB
Odnazhdy.v.Rossii 6.seriya 02.2017.WEB-DLRip.OlLanDGroup.avi629.39 MB

Текущая раздача:
ДатаКомментарии    РазмерПиры
2017-09-13 U Однажды в России [06x01-02] (2017) WEB-DLRip от OlLanDGroup 1.21 GB ↑ 69 ↓ 44

Показать ещё раздачи по запросу - однажды:
2017-10-06 U Однажды в России [06x01-05] (2017) WEB-DL 720p от OlLanDGroup 6.28 GB ↑ 36 ↓ 48
2017-10-05 U Однажды в России [06x01-05] (2017) WEB-DLRip от OlLanDGroup 3.13 GB ↑ 39 ↓ 83
2017-09-21 U Три жизни, три эпохи, десять ли персикового цвета / Однажды / Once Upon a Time (2017) BDRip 1080p | L 2К2.48 GB ↑ 37 ↓ 17
2017-09-20 U Однажды в России [06x01-03] (2017) WEB-DL 720p от OlLanDGroup 3.76 GB ↑ 91 ↓ 113
2017-09-20 U Однажды в России [06x01-03] (2017) WEB-DLRip от OlLanDGroup 1.86 GB ↑ 105 ↓ 127
2017-09-12 U Однажды в России [06x02] (2017) WEB-DL 720p от OlLanDGroup 2.46 GB ↑ 135 ↓ 174
2017-09-07 U Однажды в России [06x01] (2017) WEB-DL 720p от OlLanDGroup 1К1.24 GB ↑ 135 ↓ 15

Отзывы
Зарегистрируйтесь чтобы добавить комментарий.
Обратная связь
Copyleft ©