↑↓Torrent.by
Поиск
Логин: Регистрация
Пароль: Восстановить пароль
Загрузка...

Познавательное ТВ. Депутат Евгений Федоров [102 выпуска] (2012-2016) WEBRip 720p

Скачать poznavatelnoe-tv-deputat-evgeniy-fedorov-102-vypuska-2012-2016-webrip-720p.torrent
U Магнитная ссылка Размер: 109.69 GB Раздают: 29 Качают: 0 Добавлен: 2017-09-16 15:40:05


Название: Познавательное ТВ. Депутат Евгений Федоров
Год выпуска: 2012-2016
Производство: Россия, Познавательное ТВ
Жанр: Документальный
Продолжительность: 150:37:53

Режиссер: Артём Войтенков

Участники: Артём Войтенков, Евгений Фёдоров

Описание: Сборник содержит 102 видеоролика с депутатом Государственной Думы России, кандидатом экономических наук, координатором Национально-Освободительного Движения Евгением Фёдоровым, записанные в период c 2012 по 2016 год.
Журналист, общественный деятель, создатель проекта «Познавательное ТВ» Артём Войтенков и приглашённые гости задают Фёдорову  различные вопросы, касающиеся событий в России, странах бывшего СССР и во всём мире. Темы бесед, в основном, - политика, геополитика, экономика и культура.
Фёдоров излагает своё представление сложных проблем, простым языком, опираясь на законы истории, конкуренцию наций, борьбу за лидерство как основу всего живого. Он утверждает, что посвятил свою жизнь борьбе за свободу и суверенитет Российского Отечества. Обращается к каждому россиянину, предлагает самому разобраться в жизни своей страны, приводит интересные факты и подсказывает, где можно найти ответы. «Необходимость строго соблюдать закон», - одни из наиболее часто повторяемых слов депутата.

Реклама: Нет

Качество: WEBRip 720p
Формат: MKV
Видео кодек: H.264
Аудио кодек: AAC
Видео: AVC MPEG-4 (Baseline@L3.2), 1280x720 (16:9), 25.000 fps, ~1205 Kbps, 0.05 bit/pixel
Аудио #1: AAC, 44.1 kHz, 1 ch, 128 Kbps (выпуски 1-3, 5, 7-17, 19, 20, 22-57, 59-62, 65-67, 69-86, 88-102)
Аудио #2: AAC, 44.1 kHz, 2 ch, 128 Kbps (выпуски 4, 6, 18, 21, 58, 63, 64, 68, 87)

[+] Mediainfo


General
Unique ID                   : 227140037018546655334708807061488555937 (0xAAE194736E1ECDE384747A8A4C2857A1)
Complete name               : D:\Poznavatelnoe.TV\Fedorov.e001_01.07.2012.mkv
Format                      : Matroska
Format version              : Version 4 / Version 2
File size                   : 1.17 GiB
Duration                    : 2 h 5 min
Overall bit rate            : 1 336 kb/s
Encoded date                : UTC 2017-09-07 05:28:05
Writing application         : mkvmerge v15.0.0 ('Duel with the Devil') 64-bit
Writing library             : libebml v1.3.5 + libmatroska v1.4.5
Cover                       : Yes
Attachments                 : cover.png

Video
ID                          : 2
Format                      : AVC
Format/Info                 : Advanced Video Codec
Format profile              : Baseline@L3.2
Format settings, CABAC      : No
Format settings, RefFrames  : 3 frames
Codec ID                    : V_MPEG4/ISO/AVC
Duration                    : 2 h 5 min
Bit rate                    : 1 205 kb/s
Width                       : 1 280 pixels
Height                      : 720 pixels
Display aspect ratio        : 16:9
Frame rate mode             : Constant
Frame rate                  : 25.000 FPS
Standard                    : PAL
Color space                 : YUV
Chroma subsampling          : 4:2:0
Bit depth                   : 8 bits
Scan type                   : Progressive
Bits/(Pixel*Frame)          : 0.052
Stream size                 : 1.06 GiB (90%)
Language                    : Russian
Default                     : Yes
Forced                      : No
Color range                 : Limited

Audio
ID                          : 1
Format                      : AAC
Format/Info                 : Advanced Audio Codec
Format profile              : LC
Codec ID                    : A_AAC
Duration                    : 2 h 5 min
Bit rate                    : 128 kb/s
Channel(s)                  : 1 channel
Channel positions           : Front: C
Sampling rate               : 44.1 kHz
Frame rate                  : 43.066 FPS (1024 SPF)
Compression mode            : Lossy
Stream size                 : 115 MiB (10%)
Language                    : Russian
Default                     : Yes
Forced                      : No

_____________________________________________________________

General
Unique ID                   : 208208982041575579662346654817646872194 (0x9CA39760C680D39FAC02B500F8FD0682)
Complete name               : D:\Poznavatelnoe.TV\Fedorov.e063_11.03.2014.mkv
Format                      : Matroska
Format version              : Version 4 / Version 2
File size                   : 1.45 GiB
Duration                    : 1 h 47 min
Overall bit rate            : 1 926 kb/s
Encoded date                : UTC 2017-09-06 08:41:21
Writing application         : mkvmerge v15.0.0 ('Duel with the Devil') 64-bit
Writing library             : libebml v1.3.5 + libmatroska v1.4.5
Cover                       : Yes
Attachments                 : cover.png

Video
ID                          : 2
Format                      : AVC
Format/Info                 : Advanced Video Codec
Format profile              : Baseline@L3.2
Format settings, CABAC      : No
Format settings, RefFrames  : 3 frames
Codec ID                    : V_MPEG4/ISO/AVC
Duration                    : 1 h 47 min
Bit rate                    : 1 795 kb/s
Width                       : 1 280 pixels
Height                      : 720 pixels
Display aspect ratio        : 16:9
Frame rate mode             : Constant
Frame rate                  : 25.000 FPS
Standard                    : PAL
Color space                 : YUV
Chroma subsampling          : 4:2:0
Bit depth                   : 8 bits
Scan type                   : Progressive
Bits/(Pixel*Frame)          : 0.078
Stream size                 : 1.35 GiB (93%)
Language                    : Russian
Default                     : Yes
Forced                      : No
Color range                 : Limited

Audio
ID                          : 1
Format                      : AAC
Format/Info                 : Advanced Audio Codec
Format profile              : LC
Codec ID                    : A_AAC
Duration                    : 1 h 47 min
Bit rate                    : 128 kb/s
Channel(s)                  : 2 channels
Channel positions           : Front: L R
Sampling rate               : 44.1 kHz
Frame rate                  : 43.066 FPS (1024 SPF)
Compression mode            : Lossy
Stream size                 : 98.8 MiB (7%)
Language                    : Russian
Default                     : Yes
Forced                      : No


Скриншоты:
     
[+] Всего файлов в раздаче - 102:
Fedorov.e102_10.10.2016.mkv765.17 MB
Fedorov.e100_29.12.2015.mkv895.03 MB
Fedorov.e101_16.02.2016.mkv819.13 MB
Fedorov.e099_24.11.2015.mkv948.65 MB
Fedorov.e098_14.11.2015.mkv1.20 GB
Fedorov.e097_22.10.2015.mkv948.95 MB
Fedorov.e095_12.09.2015.mkv1.29 GB
Fedorov.e096_01.10.2015.mkv893.70 MB
Fedorov.e094_04.09.2015.mkv938.28 MB
Fedorov.e093_25.08.2015.mkv985.64 MB
Fedorov.e091_26.06.2015.mkv1.08 GB
Fedorov.e092_12.07.2015.mkv1.43 GB
Fedorov.e090_04.06.2015.mkv1.51 GB
Fedorov.e089_24.04.2015.mkv968.19 MB
Fedorov.e088_04.03.2015.mkv1.17 GB
Fedorov.e087_06.02.2015.mkv834.78 MB
Fedorov.e086_15.01.2015.mkv1.16 GB
Fedorov.e085_17.12.2014.mkv1.75 GB
Fedorov.e082_07.11.2014.mkv1.05 GB
Fedorov.e083_20.11.2014.mkv1.43 GB
Fedorov.e084_05.12.2014.mkv1.32 GB
Fedorov.e081_28.10.2014.mkv871.81 MB
Fedorov.e079_24.09.2014.mkv1.58 GB
Fedorov.e080_08.10.2014.mkv1.43 GB
Fedorov.e078_17.09.2014.mkv1,003.79 MB
Fedorov.e077_03.09.2014.mkv1.23 GB
Fedorov.e076_22.08.2014.mkv1.36 GB
Fedorov.e075_18.08.2014.mkv819.70 MB
Fedorov.e074_06.08.2014.mkv1.31 GB
Fedorov.e073_24.07.2014.mkv1.41 GB
Fedorov.e072_17.07.2014.mkv1.24 GB
Fedorov.e071_27.06.2014.mkv435.09 MB
Fedorov.e070_26.06.2014.mkv1.24 GB
Fedorov.e069_17.06.2014.mkv1.24 GB
Fedorov.e066_23.04.2014.mkv1.29 GB
Fedorov.e067_13.05.2014.mkv1.53 GB
Fedorov.e068_04.06.2014.mkv1.18 GB
Fedorov.e065_09.04.2014.mkv1.26 GB
Fedorov.e063_11.03.2014.mkv1.45 GB
Fedorov.e064_26.03.2014.mkv1.04 GB
Fedorov.e062_05.03.2014.mkv1.28 GB
Fedorov.e061_01.03.2014.mkv403.29 MB
Fedorov.e060_28.02.2014.mkv1.62 GB
Fedorov.e059_22.02.2014.mkv709.54 MB
Fedorov.e058_20.02.2014.mkv1.44 GB
Fedorov.e056_28.01.2014.mkv766.48 MB
Fedorov.e057_06.02.2014.mkv1.63 GB
Fedorov.e054_25.12.2013.mkv1.28 GB
Fedorov.e055_09.01.2014.mkv1.43 GB
Fedorov.e051_06.12.2013.mkv198.05 MB
Fedorov.e052_12.12.2013.mkv966.07 MB
Fedorov.e053_13.12.2013.mkv904.97 MB
Fedorov.e049_25.11.2013.mkv1.32 GB
Fedorov.e050_03.12.2013.mkv807.21 MB
Fedorov.e046_06.11.2013.mkv783.70 MB
Fedorov.e047_11.11.2013.mkv1.39 GB
Fedorov.e048_12.11.2013.mkv1.48 GB
Fedorov.e045_31.10.2013.mkv1.65 GB
Fedorov.e043_15.10.2013.mkv471.75 MB
Fedorov.e044_23.10.2013.mkv1.18 GB
Fedorov.e041_02.10.2013.mkv1.52 GB
Fedorov.e042_11.10.2013.mkv1.06 GB
Fedorov.e040_23.09.2013.mkv1.36 GB
Fedorov.e039_20.09.2013.mkv444.53 MB
Fedorov.e038_17.09.2013.mkv1.24 GB
Fedorov.e037_11.09.2013.mkv805.72 MB
Fedorov.e035_30.07.2013.mkv952.30 MB
Fedorov.e036_03.09.2013.mkv777.23 MB
Fedorov.e034_30.07.2013.mkv781.62 MB
Fedorov.e033_19.07.2013.mkv128.31 MB
Fedorov.e032_28.06.2013.mkv1.20 GB
Fedorov.e031_28.05.2013.mkv1.35 GB
Fedorov.e029_17.05.2013.mkv248.72 MB
Fedorov.e001_01.07.2012.mkv1.17 GB
Fedorov.e028_09.05.2013.mkv175.58 MB
Fedorov.e027_05.05.2013.mkv1.40 GB
Fedorov.e026_23.04.2013.mkv1.50 GB
Fedorov.e025_16.04.2013.mkv953.15 MB
Fedorov.e024_12.04.2013.mkv54.26 MB
Fedorov.e023_10.04.2013.mkv610.94 MB
Fedorov.e022_28.03.2013.mkv1.47 GB
Fedorov.e021_23.03.2013.mkv13.57 MB
Fedorov.e020_21.03.2013.mkv769.07 MB
Fedorov.e019_14.03.2013.mkv1.19 GB
Fedorov.e018_02.03.2013.mkv55.24 MB
Fedorov.e017_22.02.2013.mkv2.08 GB
Fedorov.e016_08.02.2013.mkv1.25 GB
Fedorov.e015_01.02.2013.mkv1.44 GB
Fedorov.e014_29.01.2013.mkv1.37 GB
Fedorov.e013_21.01.2013.mkv1.21 GB
Fedorov.e012_09.01.2013.mkv2.42 GB
Fedorov.e010_13.12.2012.mkv1.22 GB
Fedorov.e011_28.12.2012.mkv1.57 GB
Fedorov.e009_13.12.2012.mkv731.42 MB
Fedorov.e008_05.12.2012.mkv665.05 MB
Fedorov.e007_29.11.2012.mkv804.92 MB
Fedorov.e006_22.11.2012.mkv713.93 MB
Fedorov.e005_11.10.2012.mkv1.09 GB
Fedorov.e004_04.09.2012.mkv397.18 MB
Fedorov.e003_18.07.2012.mkv883.90 MB
Fedorov.e002_11.07.2012.mkv838.15 MB
Fedorov.e030_23.05.2013.mkv2.44 GB

Текущая раздача:
ДатаКомментарии    РазмерПиры
2017-09-16 U Познавательное ТВ. Депутат Евгений Федоров [102 выпуска] (2012-2016) WEBRip 720p 109.69 GB ↑ 29 ↓ 0

Похожие раздачи по запросу - познавательное:
2015-06-21 U Возрождение традиций и обычаев Русского народа.(1998-2012,документальный,познавательное.) DVDRip 1К9.70 GB ↑ 78 ↓ 14

Отзывы
Зарегистрируйтесь чтобы добавить комментарий.
Обратная связь
Copyleft ©