↑↓Torrent.by
Поиск
Логин: Регистрация
Пароль: Восстановить пароль
Загрузка...

Однажды в России [06x01-03] (2017) WEB-DL 720p от OlLanDGroup

Скачать odnazhdy-v-rossii-06x01-03-2017-web-dl-720p-ot-ollandgroup.torrent
U Магнитная ссылка Размер: 3.76 GB Раздают: 93 Качают: 113 Добавлен: 2017-09-20 05:59:09
Однажды в России [06x01-03] (2017) WEB-DL 720p от OlLanDGroup

Оригинальное название: Однажды в России
Год выхода: 2017
Жанр:  ТВ-шоу, юмор
Выпущено: Россия, ТНТ, Comedy Club Production
В ролях:Игорь Ласточкин, Ирина Чеснокова, Михаил Стогниенко, Давид Цаллаев, Заур Байцаев, Теймураз Тания, Екатерина Моргунова, Максим Киселёв, Денис Дорохов, Александр Пташенчук, Азамат Мусагалиев, Ольга Картункова

Описание фильма:
Самое острое сатирическое шоу на отечественном телевидении возвращается с новыми выпусками. Все, что нужно знать о России и чего никогда не покажут в новостях. Московский ОМОН ловит в центре столицы покемонов, российские ученые впервые в мире провели операцию по пересадке сознания, в России снимут адаптацию сериала «Игры престолов» и откроют филиал школы магов Хогвардс. Все это и многое другое в новых выпусках «Однажды в России», — шоу, сделанном на невероятном для российского телевидения техническом уровне, и продолжающем традицию сатиры и социального юмора на ТНТ.

Информация о файле:
Кодек: AVC
Качество: WEB-DL 720p
Свойства видео: 1280x720 (16:9), 25 fps, х264, 3521 Kbps, 0.153 bit/pixel
Свойства аудио: 48,0 kHz, Audio Coding 3, 2 ch, ~192 kbps avg

Продолжительность:  ~ 00:50:00
Язык: Русский

Релиз:
[+] Инфо файл
Общее
Уникальный идентификатор                 : 209613326977224419430518947158092954549 (0x9DB20EEDD9AA937FA00D83FD292C3BB5)
Полное имя                               : D:ВидеоOdnazhdy.v.Rossii 6.2017.WEB-DL720p.OlLanDGroupOdnazhdy.v.Rossii 6.seriya 01.2017.WEB-DL720p.OlLanDGroup.mkv
Формат                                   : Matroska
Версия формата                           : Version 4 / Version 2
Размер файла                             : 1,24 Гбайт
Продолжительность                        : 46 м.
Общий поток                              : 3788 Кбит/сек
Название фильма                          : Odnazhdy.v.Rossii 6.seriya 01.2017.WEB-DL720p.OlLanDGroup
Дата кодирования                         : UTC 2017-09-06 17:43:09
Программа кодирования                    : mkvmerge v15.0.0 ('Duel with the Devil') 64-bit
Библиотека кодирования                   : libebml v1.3.5 + libmatroska v1.4.5
Attachment                               : Yes

Видео
Идентификатор                            : 1
Формат                                   : AVC
Формат/Информация                        : Advanced Video Codec
Профиль формата                          : High@L3.1
Параметр CABAC формата                   : Да
Параметр ReFrames формата                : 1 кадр
Параметр GOP формата                     : M=1, N=12
Идентификатор кодека                     : V_MPEG4/ISO/AVC
Продолжительность                        : 46 м.
Битрейт                                  : 3521 Кбит/сек
Ширина                                   : 1280 пикселей
Высота                                   : 720 пикселей
Соотношение сторон                       : 16:9
Режим частоты кадров                     : Постоянный
Частота кадров                           : 25,000 кадров/сек
Стандарт вещания                         : Component
Цветовое пространство                    : YUV
Субдискретизация насыщенности            : 4:2:0
Битовая глубина                          : 8 бит
Тип развёртки                            : Прогрессивная
Бит/(Пиксели*Кадры)                      : 0.153
Размер потока                            : 1,15 Гбайт (93%)
Заголовок                                : OlLanDGroup
Язык                                     : Russian
Default                                  : Да
Forced                                   : Нет
DURATION                                 : 00:46:47.816000000
NUMBER_OF_FRAMES                         : 70172
NUMBER_OF_BYTES                          : 1261266727
_STATISTICS_WRITING_APP                  : mkvmerge v15.0.0 ('Duel with the Devil') 64-bit
_STATISTICS_WRITING_DATE_UTC             : 2017-09-06 17:43:09
_STATISTICS_TAGS                         : BPS DURATION NUMBER_OF_FRAMES NUMBER_OF_BYTES

Аудио
Идентификатор                            : 2
Формат                                   : AC-3
Формат/Информация                        : Audio Coding 3
Расширение режима                        : CM (complete main)
Параметр Endianness формата              : Big
Идентификатор кодека                     : A_AC3
Продолжительность                        : 46 м.
Вид битрейта                             : Постоянный
Битрейт                                  : 192 Кбит/сек
Каналы                                   : 2 канала
Расположение каналов                     : Front: L R
Частота                                  : 48,0 КГц
Битовая глубина                          : 16 бит
Метод сжатия                             : С потерями
Размер потока                            : 64,3 Мбайт (5%)
Язык                                     : Russian
Default                                  : Да
Forced                                   : Нет
DURATION                                 : 00:46:47.872000000
NUMBER_OF_FRAMES                         : 87746
NUMBER_OF_BYTES                          : 67388928
_STATISTICS_WRITING_APP                  : mkvmerge v15.0.0 ('Duel with the Devil') 64-bit
_STATISTICS_WRITING_DATE_UTC             : 2017-09-06 17:43:09
_STATISTICS_TAGS                         : BPS DURATION NUMBER_OF_FRAMES NUMBER_OF_BYTES




Скриншоты:
[+] Всего файлов в раздаче - 3:
Odnazhdy.v.Rossii 6.seriya 01.2017.WEB-DL720p.OlLanDGroup.mkv1.24 GB
Odnazhdy.v.Rossii 6.seriya 02.2017.WEB-DL720p.OlLanDGroup.mkv1.22 GB
Odnazhdy.v.Rossii 6.seriya 03.2017.WEB-DL720p.OlLanDGroup.mkv1.30 GB

Текущая раздача:
ДатаКомментарии    РазмерПиры
2017-09-20 U Однажды в России [06x01-03] (2017) WEB-DL 720p от OlLanDGroup 3.76 GB ↑ 93 ↓ 113

Показать ещё раздачи по запросу - однажды:
2017-10-06 U Однажды в России [06x01-05] (2017) WEB-DL 720p от OlLanDGroup 6.28 GB ↑ 36 ↓ 48
2017-10-05 U Однажды в России [06x01-05] (2017) WEB-DLRip от OlLanDGroup 3.13 GB ↑ 40 ↓ 84
2017-09-21 U Три жизни, три эпохи, десять ли персикового цвета / Однажды / Once Upon a Time (2017) BDRip 1080p | L 2К2.48 GB ↑ 37 ↓ 17
2017-09-20 U Однажды в России [06x01-03] (2017) WEB-DLRip от OlLanDGroup 1.86 GB ↑ 108 ↓ 127
2017-09-13 U Однажды в России [06x01-02] (2017) WEB-DLRip от OlLanDGroup 1.21 GB ↑ 71 ↓ 44
2017-09-12 U Однажды в России [06x02] (2017) WEB-DL 720p от OlLanDGroup 2.46 GB ↑ 136 ↓ 174
2017-09-07 U Однажды в России [06x01] (2017) WEB-DL 720p от OlLanDGroup 1К1.24 GB ↑ 135 ↓ 15

Отзывы
Зарегистрируйтесь чтобы добавить комментарий.
Обратная связь
Copyleft ©