↑↓Torrent.by
Поиск
Логин: Регистрация
Пароль: Восстановить пароль
Загрузка...

Гадкий я 3 / Despicable Me 3 (2017) BDRip 1080p от New-Team & qqss44 | iTunes

Скачать gadkiy-ya-3-despicable-me-2017-bdrip-1080p-ot-new-team-qqss44-itunes.torrent
U Магнитная ссылка Размер: 5.56 GB Раздают: 566 Качают: 287 Добавлен: 2017-09-21 23:26:01
Гадкий я 3 / Despicable Me 3 (2017) BDRip 1080p от New-Team & qqss44 | iTunes

Название: Гадкий я 3
Оригинальное название: Despicable Me 3
Год выпуска: 2017
Жанр: Мультфильм, фантастика, боевик, комедия, приключения, семейный
Режиссер: Эрик Гуильон, Кайл Балда, Пьер Коффан
В ролях: Стив Карелл, Кристен Уиг, Трей Паркер, Миранда Косгров, Дэна Гайер, Пьер Коффан, Стив Кугэн, Джули Эндрюс, Дженни Слейт

О фильме:
Грядет третье пришествие. Многодетный суперагент, роковая красотка и бессмертные миньоны на подходе. Готовьтесь. Они будут править миром.

Страна: США
Студия: Illumination Entertainment, Universal Pictures
Продолжительность: 01:29:40
Перевод: Дублированный | iTunes
Файл
Формат: MKV, BDRip 1080p
Видео: MPEG-4 AVC, 8500 Кбит/с, 1920x800
Aудио#1: [RUS] AC3 | 48 KHz | 5.1 (Front: L С R Side: L R) + LFE | ~384 kbps
Релиз от:


[+] МИ


Общее
Уникальный идентификатор                 : 214156466315981372968833814817454287459 (0xA11D08FE08054F629B3E446D0271EA63)
Полное имя                               : X:�0000Despicable.Me.3.(2017).BDRip.1080p.(qqss44).mkv
Формат                                   : Matroska
Версия формата                           : Version 2
Размер файла                             : 5,56 Гбайт
Продолжительность                        : 1 ч. 29 м.
Общий поток                              : 8877 Кбит/сек
Название фильма                          : Despicable.Me.3.(2017).BDRip.1080p.(qqss44)
Дата кодирования                         : UTC 2017-09-21 08:19:37
Программа кодирования                    : mkvmerge v5.8.0 ('No Sleep / Pillow') built on Sep  2 2012 15:37:04
Библиотека кодирования                   : libebml v1.2.3 + libmatroska v1.3.0

Видео
Идентификатор                            : 1
Формат                                   : AVC
Формат/Информация                        : Advanced Video Codec
Профиль формата                          : High@L4.1
Параметр CABAC формата                   : Да
Параметр ReFrames формата                : 5 кадров
Идентификатор кодека                     : V_MPEG4/ISO/AVC
Продолжительность                        : 1 ч. 29 м.
Битрейт                                  : 8500 Кбит/сек
Ширина                                   : 1920 пикселей
Высота                                   : 804 пикселя
Соотношение сторон                       : 2,40:1
Режим частоты кадров                     : Постоянный
Частота кадров                           : 23,976 (24000/1001) кадра/сек
Цветовое пространство                    : YUV
Субдискретизация насыщенности            : 4:2:0
Битовая глубина                          : 8 бит
Тип развёртки                            : Прогрессивная
Бит/(Пиксели*Кадры)                      : 0.230
Размер потока                            : 5,21 Гбайт (94%)
Заголовок                                : Despicable.Me.3.(2017).BDRip.1080p.(qqss44)
Библиотека кодирования                   : x264 core 152 r2851kMod ba24899
Настройки программы                      : cabac=1 / ref=5 / deblock=1:0:0 / analyse=0x3:0x113 / me=umh / subme=11 / psy=1 / fade_compensate=0.00 / psy_rd=1.00:0.00 / mixed_ref=1 / me_range=32 / chroma_me=1 / trellis=2 / 8x8dct=1 / cqm=0 / deadzone=21,11 / fast_pskip=0 / chroma_qp_offset=-2 / threads=12 / lookahead_threads=2 / sliced_threads=0 / nr=0 / decimate=0 / interlaced=0 / bluray_compat=0 / constrained_intra=0 / bframes=8 / b_pyramid=2 / b_adapt=2 / b_bias=0 / direct=3 / weightb=1 / open_gop=0 / weightp=2 / keyint=240 / keyint_min=23 / scenecut=40 / intra_refresh=0 / rc_lookahead=40 / rc=2pass / mbtree=0 / bitrate=8500 / ratetol=1.0 / qcomp=0.60 / qpmin=0 / qpmax=69 / qpstep=4 / cplxblur=20.0 / qblur=0.5 / vbv_maxrate=50000 / vbv_bufsize=62500 / nal_hrd=none / filler=0 / ip_ratio=1.40 / pb_ratio=1.30 / aq=3:0.70
Язык                                     : English
Default                                  : Да
Forced                                   : Нет

Аудио
Идентификатор                            : 2
Формат                                   : AC-3
Формат/Информация                        : Audio Coding 3
Расширение режима                        : CM (complete main)
Параметр Endianness формата              : Big
Идентификатор кодека                     : A_AC3
Продолжительность                        : 1 ч. 29 м.
Вид битрейта                             : Постоянный
Битрейт                                  : 384 Кбит/сек
Каналы                                   : 6 каналов
Расположение каналов                     : Front: L C R, Side: L R, LFE
Частота                                  : 48,0 КГц
Частота кадров                           : 31,250 кадров/сек (1536 spf)
Метод сжатия                             : С потерями
Размер потока                            : 246 Мбайт (4%)
Язык                                     : Russian
Default                                  : Да
Forced                                   : Нет

Меню
00:00:00.000                             : en:00:00:00.000
00:03:06.103                             : en:00:03:06.103
00:07:57.977                             : en:00:07:57.977
00:11:12.839                             : en:00:11:12.839
00:16:15.766                             : en:00:16:15.766
00:20:07.498                             : en:00:20:07.498
00:24:07.988                             : en:00:24:07.988
00:28:57.069                             : en:00:28:57.069
00:32:55.348                             : en:00:32:55.348
00:39:01.839                             : en:00:39:01.839
00:42:44.187                             : en:00:42:44.187
00:46:47.179                             : en:00:46:47.179
00:50:55.636                             : en:00:50:55.636
00:56:12.077                             : en:00:56:12.077
01:00:02.265                             : en:01:00:02.265
01:05:41.229                             : en:01:05:41.229
01:10:14.544                             : en:01:10:14.544
01:14:33.761                             : en:01:14:33.761
01:19:29.723                             : en:01:19:29.723
01:21:56.995                             : en:01:21:56.995




Скриншоты:
[+] Всего файлов в раздаче - 1:
Despicable.Me.3.(2017).BDRip.1080p.(qqss44).mkv5.56 GB

Текущая раздача:
ДатаКомментарии    РазмерПиры
2017-09-21 U Гадкий я 3 / Despicable Me 3 (2017) BDRip 1080p от New-Team & qqss44 | iTunes 1 К 5.56 GB ↑ 566 ↓ 287

Показать еще раздачи по запросу гадкий:
2017-11-01 U Гадкий я 3 / Despicable Me 3 (2017) HDRip от Scarabey | Лицензия 1.45 GB ↑ 163 ↓ 35
2017-10-31 U Гадкий я 3 / Despicable Me 3 (2017) BDRip-AVC от New-Team | Лицензия 761.60 MB ↑ 53 ↓ 13
2017-10-30 U Гадкий я 3 / Despicable Me 3 (2017) BDRip-AVC от New-Team | Лицензия 1.44 GB ↑ 74 ↓ 16
2017-10-29 U Гадкий я 3 / Despicable Me 3 (2017) BDRip-AVC от New-Team | Лицензия 2.10 GB ↑ 114 ↓ 27
2017-10-29 U Гадкий я 3 / Despicable Me 3 (2017) HDRip от MegaPeer | Лицензия 746.12 MB ↑ 169 ↓ 9
2017-10-29 U Гадкий я 3 / Despicable Me 3 (2017) BDRip-HEVC 1080p от HEVC CLUB | Лицензия 4.15 GB ↑ 98 ↓ 40
2017-10-28 U Гадкий я 3 / Despicable Me 3 (2017) BDRip 720p от HELLYWOOD | Лицензия 4.13 GB ↑ 92 ↓ 43

Отзывы
drozdvital
Ваще красавчик!!!!

Зарегистрируйтесь чтобы добавить комментарий.
Обратная связь
Copyleft ©