↑↓Torrent.by
Поиск
Логин: Регистрация
Пароль: Восстановить пароль
Загрузка...

Kaipa - Children of the Sounds - 2017, FLAC (tracks), lossless

Скачать kaipa-children-of-the-sounds-2017-flac-tracks-lossless.torrent
U Магнитная ссылка Размер: 408.75 MB Раздают: 24 Качают: 24 Добавлен: 2017-09-22 08:38:40
[img alt="(Symphonic Prog) [WEB] Kaipa - Children of the Sounds - 2017, FLAC (tracks), lossless"][/img]


Kaipa / Children of the Sounds


Жанр: Symphonic Prog
Носитель: WEB
Год издания: 2017
Издатель (лейбл): InsideOutMusic
Страна исполнителя (группы): Sweden
Аудиокодек: FLAC (*.flac)
Тип рипа: tracks
Битрейт аудио: lossless

Продолжительность: 58:04
Источник (релизер): WEB
Наличие сканов в содержимом раздачи: нет
01. Children of the Sounds (11:32)
02. On the Edge of New Horizons (17:10)
03. Like a Serpentine (12:52)
04. The Shadowy Sunlight (6:58)
05. What's Behind the Fields (9:32)

[+] Лог проверки качества


-----------------------
DON'T MODIFY THIS FILE
-----------------------
PERFORMER: auCDtect Task Manager, ver. 1.6.0 RC1 build 1.6.0.1Copyright (c) 2008-2010 y-soft. All rights reservedhttp://y-soft.org
ANALYZER: auCDtect: CD records authenticity detector, version 0.8.2Copyright (c) 2004 Oleg Berngardt. All rights reserved.Copyright (c) 2004 Alexander Djourik. All rights reserved.
FILE: 05. What's Behind the Fields.flac  Size: 70285305 Hash: 1E0651C7B75759C151821BB977B0318C Accuracy: -m0  Conclusion: CDDA 100%  Signature: DA8FA56927EABE4A8B43DDAC8CE8CED1C59C6862FILE: 04. The Shadowy Sunlight.flac  Size: 49919350 Hash: 53B85682FD71788E88AD789EA2A76565 Accuracy: -m0  Conclusion: CDDA 100%  Signature: 7A53BBD95B6875BBC0E938236C4338E7B019F27AFILE: 03. Like a Serpentine.flac  Size: 92599709 Hash: C3D086C2DE983914B9F3E165E11D99E1 Accuracy: -m0  Conclusion: CDDA 100%  Signature: 5532E94A0B2D2A53CD9524545EF779EBEDEA72DEFILE: 02. On the Edge of New Horizons.flac  Size: 127531481 Hash: 3C8FF972163ABEA320B53395ACF1AF4E Accuracy: -m0  Conclusion: CDDA 100%  Signature: 9B9005A81CF474447EFA1811E881A6C56C192341FILE: 01. Children of the Sounds.flac  Size: 85436880 Hash: AAE4522B965FF19E9A0B24AEF9B99C47 Accuracy: -m0  Conclusion: CDDA 100%  Signature: D42888FC54B2EE14AB2553C05CF1BA8CAB2A400D



[+] Лог DRM


foobar2000 1.3.9 / Dynamic Range Meter 1.1.1log date: 2017-09-22 07:59:36
--------------------------------------------------------------------------------Analyzed: Kaipa / Children Of The Sounds--------------------------------------------------------------------------------
DR         Peak         RMS     Duration Track--------------------------------------------------------------------------------DR5       -0.37 dB    -7.72 dB     11:32 01-Children of the SoundsDR6       -0.37 dB    -7.92 dB     17:10 02-On the Edge of New HorizonsDR6       -0.37 dB    -8.41 dB     12:52 03-Like a SerpentineDR6       -0.38 dB    -8.14 dB      6:58 04-The Shadowy SunlightDR6       -0.38 dB    -8.34 dB      9:32 05-What's Behind the Fields--------------------------------------------------------------------------------
Number of tracks:  5Official DR value: DR6
Samplerate:        44100 HzChannels:          2Bits per sample:   16Bitrate:           981 kbpsCodec:             FLAC================================================================================



[+] Состав
Aleena Gibson - Vocals
Patrik Lundstrom - Vocals
Per Nilsson - Guitars
Jonas Reingold - Bass
Hans Lundin - Keyboards, Vocals
Morgan Agren - Drums

[+] Всего файлов в раздаче - 6:
01. Children of the Sounds.flac81.48 MB
02. On the Edge of New Horizons.flac121.62 MB
03. Like a Serpentine.flac88.31 MB
04. The Shadowy Sunlight.flac47.61 MB
cover.jpg2.70 MB

Текущая раздача:
ДатаКомментарии    РазмерПиры
2017-09-22 U Kaipa - Children of the Sounds - 2017, FLAC (tracks), lossless 408.75 MB ↑ 24 ↓ 24

Похожие раздачи по запросу - symphonic:
2017-03-18 U Би-2 - Би-2 & Prague Metropolitan Symphonic Orchestra Vol. 2 (2017) MP3 132.71 MB ↑ 406 ↓ 1
2016-06-15 U The Alan Parsons Symphonic Project - Live In Colombia (2016) BDRip 720p 7.46 GB ↑ 334 ↓ 1
2016-05-29 U The Alan Parsons Symphonic Project - Live in Colombia (2016) FLAC 655.92 MB ↑ 173 ↓ 1
2013-11-20 U Би-2 и Prague Metropolitan Symphonic Orchestra (2013) МР3 3К95.13 MB ↑ 221 ↓ 98

Отзывы
Зарегистрируйтесь чтобы добавить комментарий.
Обратная связь
Copyleft ©