↑↓Torrent.by
Поиск
Логин: Регистрация
Пароль: Восстановить пароль
Загрузка...

Беседа с Евгением Федоровым (19.09.2017) WEBRip 720p

Скачать beseda-s-evgeniem-fedorovym-19-09-2017-webrip-720p.torrent
U Магнитная ссылка Размер: 505.72 MB Раздают: 37 Качают: 0 Добавлен: 2017-09-22 11:35:38


Название: Беседа с Евгением Федоровым
Жанр: Политика
Дата выпуска: 19.09.2017
Выпущено: Телевидение Национально-Освободительного Движения

Участники: Мишин Виктор, Евгений Федоров, Максим Славин

Описание: Активист Национально-Освободительного Движения Максим Славин привёл на встречу с депутатом Государственной Думы редактора Общественной Народной газеты Российской Федерации «Владимирская Русь» Виктора Мишина. Говорили о правопреемственности России по отношению к СССР.

Качество: WEBRip 720p
Видео: H.264, 1280x720, ~692 kbps, 29.970 fps, 0.025 bit/pixel
Аудио: AAC, 2 ch, 126 kbps, 44.1 kHz
Продолжительность: 01:26:05
Перевод: Не требуется

[+] MediaInfo


General
Unique ID                   : 240446616723050912199231720694723979365 (0xB4E4557B9B8C5249B4BCBBD162DD2865)
Complete name               : D:\Film\Беседа с Евгением Федоровым 19.09.17.mkv
Format                      : Matroska
Format version              : Version 4 / Version 2
File size                   : 506 MiB
Duration                    : 1 h 26 min
Overall bit rate            : 821 kb/s
Encoded date                : UTC 2017-09-22 05:22:35
Writing application         : mkvmerge v15.0.0 ('Duel with the Devil') 64-bit
Writing library             : libebml v1.3.5 + libmatroska v1.4.5
Cover                       : Yes
Attachments                 : cover.png

Video
ID                          : 1
Format                      : AVC
Format/Info                 : Advanced Video Codec
Format profile              : Main@L3.1
Format settings, CABAC      : Yes
Format settings, RefFrames  : 3 frames
Codec ID                    : V_MPEG4/ISO/AVC
Duration                    : 1 h 26 min
Bit rate                    : 692 kb/s
Width                       : 1 280 pixels
Height                      : 720 pixels
Display aspect ratio        : 16:9
Frame rate mode             : Constant
Frame rate                  : 29.970 (30000/1001) FPS
Color space                 : YUV
Chroma subsampling          : 4:2:0
Bit depth                   : 8 bits
Scan type                   : Progressive
Bits/(Pixel*Frame)          : 0.025
Stream size                 : 426 MiB (84%)
Language                    : Russian
Default                     : Yes
Forced                      : No
Color range                 : Limited
Color primaries             : BT.709
Transfer characteristics    : BT.709
Matrix coefficients         : BT.709

Audio
ID                          : 2
Format                      : AAC
Format/Info                 : Advanced Audio Codec
Format profile              : LC
Codec ID                    : A_AAC
Duration                    : 1 h 26 min
Bit rate                    : 126 kb/s
Channel(s)                  : 2 channels
Channel positions           : Front: L R
Sampling rate               : 44.1 kHz
Frame rate                  : 43.066 FPS (1024 SPF)
Compression mode            : Lossy
Stream size                 : 77.3 MiB (15%)
Language                    : Russian
Default                     : Yes
Forced                      : No


Скриншоты:

     

     
[+] Всего файлов в раздаче - 1:
Беседа с Евгением Федоровым 19.09.17.mkv505.72 MB

Отзывы
Зарегистрируйтесь чтобы добавить комментарий.
Обратная связь
Copyleft ©