↑↓Torrent.by
Поиск
Логин: Регистрация
Пароль: Восстановить пароль
Загрузка...

Salentino Cuts (First Covers Album) - 2017, FLAC (tracks), lossless

Скачать salentino-cuts-first-covers-album-2017-flac-tracks-lossless.torrent
U Магнитная ссылка Размер: 334.17 MB Раздают: 75 Качают: 9 Добавлен: 2017-10-01 08:34:31
(Rock, Hard Rock, Classic Rock) [WEB] UFO - Salentino Cuts (First Covers Album) - 2017, FLAC (tracks), lossless
________________________________________
Salentino Cuts (Covers Album)
______________________________________

Жанр: Rock, Hard Rock, Classic Rock
Носитель: WEB
Год издания: 2017
Издатель (лейбл): Cleopatra Records
Страна исполнителя (группы): UK
Аудиокодек: FLAC (*.flac)
Тип рипа: tracks
Битрейт аудио: lossless

Продолжительность: 46:47
Источник (релизер): сеть
Наличие сканов в содержимом раздачи: нет
Треклист:
01. Heartful of Soul (The Yardbirds)(3:09)
02. Break on Through (The Doors)(To the Other Side) (2:22)
03. River of Deceit (Mad Season) (5:09)
04. The Pusher (Steppenwolf) (4:56)
05. Paper in Fire (John Mellencamp) (4:03)
06. Rock Candy (Montrose) (5:12)
07. Mississippi Queen (Mountain) (2:42)
08. Ain't No Sunshine (Bill Withers) (3:12)
09. Honey-Bee (Tom Petty) (3:59)
10. Too Rolling Stoned (Robin Trower) (5:14)
11. Just Got Paid (ZZ Top) (3:24)
12. It's My Life (The Animals) (3:33)

Доп. информация:
[+] Лог проверки качества


-----------------------
DON'T MODIFY THIS FILE
-----------------------
PERFORMER: auCDtect Task Manager, ver. 1.6.0 RC1 build 1.6.0.1Copyright (c) 2008-2010 y-soft. All rights reservedhttp://y-soft.org
ANALYZER: auCDtect: CD records authenticity detector, version 0.8.2Copyright (c) 2004 Oleg Berngardt. All rights reserved.Copyright (c) 2004 Alexander Djourik. All rights reserved.
FILE: 12 It's My Life.flac  Size: 26645207 Hash: 30CDD20824B4C700832FA4C8D344F91C Accuracy: -m0  Conclusion: CDDA 99%  Signature: F7865584E36478A1571EB45718B1D52562847FB4FILE: 11 Just Got Paid.flac  Size: 27694235 Hash: DDEEE3934FF33E92722F2043E224FC73 Accuracy: -m0  Conclusion: CDDA 100%  Signature: F18A40255D6F903ECC3002E3CC4240C6EDBC5E76FILE: 10 Too Rolling Stoned.flac  Size: 40025026 Hash: 66777FC9F641F9AB689C983AAF57224E Accuracy: -m0  Conclusion: CDDA 100%  Signature: D95CD7F513B6A91798E8AD31C8F6C8DEAE94FA37FILE: 09 Honey-Bee.flac  Size: 29576330 Hash: 5B853F91E6C7F2B07ED9A275B9137FD1 Accuracy: -m0  Conclusion: CDDA 100%  Signature: 8F2EF0FB3D39604F9E36F135BA0751CFBE872265FILE: 08 Ain't No Sunshine.flac  Size: 21438059 Hash: 3AD996491DA1F83E5D5EB730BAE1C84D Accuracy: -m0  Conclusion: CDDA 100%  Signature: 2EFA44702AE5BAF9925C7B98328024D236A14A91FILE: 07 Mississippi Queen.flac  Size: 20372892 Hash: 5E09B2C4DFCC8FBDE9EA7F0E282098DF Accuracy: -m0  Conclusion: CDDA 100%  Signature: E729700492363B895E5E5F795BA7649FC745A5B9FILE: 06 Rock Candy.flac  Size: 41106185 Hash: 12C4ED6AB1EFB7560009B53B7FBCB8A7 Accuracy: -m0  Conclusion: CDDA 100%  Signature: C89BE96013A124B1EBB2D7001227233EC62AD178FILE: 05 Paper in Fire.flac  Size: 32106402 Hash: 86977580D8947A4AC9E2FE2568F3A602 Accuracy: -m0  Conclusion: CDDA 100%  Signature: 21C6C81E2F7E729F0980207D81413DC604875510FILE: 04 The Pusher.flac  Size: 34863016 Hash: 11EBA538F6CE3BD3A3B7D86669346BF2 Accuracy: -m0  Conclusion: CDDA 100%  Signature: 65A7EB161DBD269774D563DE92DBB7B1D31DA5C7FILE: 03 River of Deceit.flac  Size: 32093231 Hash: 86BA6E822DF51C15EA06441F575717BD Accuracy: -m0  Conclusion: CDDA 100%  Signature: D79F2536C4D495DE9BC16DAF4D76459E0D8E1B34FILE: 02 Break on Through (To the Other Side).flac  Size: 18888536 Hash: 630B92950CF8E7B462531DC2F819A84E Accuracy: -m0  Conclusion: CDDA 100%  Signature: C7AEC9FD415871AE4EFFEF8174C9A472E21C5C96FILE: 01 Heartful of Soul.flac  Size: 25137545 Hash: 84E6052BA78111BF1B4EA97F1CBDFA55 Accuracy: -m0  Conclusion: CDDA 100%  Signature: 42127667BE7E3DDC6ADF8F1FB610CDF7AA0AABF0



[+] Динамический диапазон [10
]

foobar2000 1.2.9 / Dynamic Range Meter 1.1.1log date: 2017-10-01 00:30:13
--------------------------------------------------------------------------------Analyzed: UFO / The Salentino Cuts--------------------------------------------------------------------------------
DR         Peak         RMS     Duration Track--------------------------------------------------------------------------------DR10       0.00 dB   -11.41 dB      3:09 01-Heartful of SoulDR9        0.00 dB   -10.60 dB      2:22 02-Break on Through (To the Other Side)DR9        0.00 dB   -11.42 dB      5:09 03-River of DeceitDR11      -0.10 dB   -12.35 dB      4:56 04-The PusherDR10      -0.10 dB   -11.30 dB      4:03 05-Paper in FireDR10       0.00 dB   -10.80 dB      5:12 06-Rock CandyDR8        0.00 dB    -9.46 dB      2:42 07-Mississippi QueenDR12       0.00 dB   -13.27 dB      3:12 08-Ain't No SunshineDR8       -0.10 dB    -9.67 dB      3:59 09-Honey-BeeDR11       0.00 dB   -12.06 dB      5:14 10-Too Rolling StonedDR7        0.00 dB    -8.00 dB      3:24 11-Just Got PaidDR10       0.00 dB   -10.88 dB      3:33 12-It's My Life--------------------------------------------------------------------------------
Number of tracks:  12Official DR value: DR10
Samplerate:        44100 HzChannels:          2Bits per sample:   16Bitrate:           986 kbpsCodec:             FLAC================================================================================



[+] Об альбоме (сборнике)
Легендарные британские хард-рокеры UFO выпускают первый в своей истории альбом каверов, на котором отдают дань уважения дюжине своих любимых песен. Диск под названием "The Salentino Cuts" включат в себя ряд неожиданных треков, таких как "River Of Deceit" MAD SEASONS, "Paper In Fire" Джона Мелленкампа (John Mellencamp) и "Ain't No Sunshine" Билла Уизерса (Bill Withers), а также более традиционный, но не менее захватывающий материал, например, "Heartful Of Soul" THE YARDBIRDS, "Just Got Paid" ZZ TOP и др.
В текущий состав UFO входят двое оригинальных участников – вокалист Фил Могг (Phil Mogg) и барабанщик Энди Паркер (Andy Parker). Клавишник и гитарист Пол Рэймонд (Paul Raymond) присоединился к группе в 1976 году. Соло-гитарист Винни Мур (Vinnie Moore) является постоянным участником с 2003 года, а басист Роб Де Люка (Rob De Luca) – с 2012-го. Винни говорит: "Делать альбом каверов было для меня супер-прикольно. Мне очень понравилось привносить свою индивидуальность в номера, на которых я рос. За свою жизнь я играл песни ZZ TOP и Робина Трауэра (Robin Trower) на сцене не меньше миллиона раз. Было здорово наконец-то записать некоторые из моих старых фаворитов".
"The Salentino Cuts" увидит свет 29 сентября на лейбле Cleopatra. Альбом будет доступен на CD и на двух лимитированных виниловых изданиях разной цветовой гаммы.
http://www.maximumvolumemusic.com/review-ufo-salentino-cuts-2017/



[+] Всего файлов в раздаче - 14:
06 Rock Candy.flac39.20 MB
10 Too Rolling Stoned.flac38.17 MB
04 The Pusher.flac33.25 MB
05 Paper in Fire.flac30.62 MB
03 River of Deceit.flac30.61 MB
09 Honey-Bee.flac28.21 MB
11 Just Got Paid.flac26.41 MB
01 Heartful of Soul.flac23.97 MB
07 Mississippi Queen.flac19.43 MB
02 Break on Through (To the Other Side).flac18.01 MB
folder.jpg439.49 kB
auCDtect Task Manager.txt2.53 kB

Текущая раздача:
ДатаКомментарии    РазмерПиры
2017-10-01 U Salentino Cuts (First Covers Album) - 2017, FLAC (tracks), lossless 334.17 MB ↑ 75 ↓ 9

Показать ещё раздачи по запросу - rock:
2017-09-28 U VA - Rock Classics - The Collection: The Ultimate Rock Anthems (2017) MP3 702.73 MB ↑ 59 ↓ 24
2017-09-20 U Сборник - Rock & Metal Collection: Part 2 от ALEXnROCK (2017) MP3 636.47 MB ↑ 84 ↓ 17
2017-09-17 U David Garrett - Rock Revolution (2017) MP3 149.30 MB ↑ 236 ↓ 34
2017-09-16 U Chris Norman - Don't Knock the Rock (2017) FLAC 363.43 MB ↑ 126 ↓ 12
2017-09-14 U Chris Norman - Don't Knock the Rock (2017) MP3 108.12 MB ↑ 284 ↓ 74
2017-09-10 U VA - Guitar Rock 1968-1969 (1994) MP3 от Vanila 152.22 MB ↑ 76 ↓ 11
2017-09-10 U VA - Guitar Rock 1970-1971 (1994) MP3 от Vanila 158.39 MB ↑ 102 ↓ 18

Отзывы
Зарегистрируйтесь чтобы добавить комментарий.
Обратная связь
Copyleft ©