↑↓Torrent.by
Поиск
Логин: Регистрация
Пароль: Восстановить пароль
Загрузка...

Под огнём (2017) WEBRip 720p

Скачать pod-ognem-2017-webrip-720p.torrent
U Магнитная ссылка Размер: 360.41 MB Раздают: 44 Качают: 7 Добавлен: 2017-10-01 16:16:52


Название: Под огнём
Дата/Год выпуска: 2017
Страна: Россия, Информационное агентство «News Front»
Жанр: Документальный, драма, война
Продолжительность: 00:25:50
Перевод: Не требуется
Русские субтитры: есть

Формат субтитров: hardsub (неотключаемые)
Режиссер: Никита Возмитель

Описание: Документальный фильм о конфликте на Донбассе. Авторская съемка военкора команды News Front Никиты Возмителя. Десятки свидетелей военных преступлений. Задокументированные факты нарушения режима прекращения огня. Уникальные кадры, на которых запечатлены те, кто ежедневно живут на грани. Люди, которые оказались в ловушке. Они живут вблизи передовой, каждый день для них – испытание. Документальный фильм, который рассказывает о разломленном Донбассе, о перемирии, которое хоронит гражданское население. О войне, которая продолжается.

качество: WEBRip
формат: MKV
Видео: AVC/H.264, 1280x720 (16:9), ~1819 kbps, 30.000 fps
Аудио: AAC, 126 kbps, 44.1 kHz, 2 ch

[+] "MediaInfo"
[pre]
General
Unique ID                   : 188791476700459014052395211624915158208 (0x8E07EA7353B456DDAC7440003A3C44C0)
Complete name               : D:\Film\Под огнём.mkv
Format                      : Matroska
Format version              : Version 4 / Version 2
File size                   : 360 MiB
Duration                    : 25 min 50 s
Overall bit rate            : 1 950 kb/s
Encoded date                : UTC 2017-10-01 04:43:37
Writing application         : mkvmerge v16.0.0 ('Protest') 64-bit
Writing library             : libebml v1.3.5 + libmatroska v1.4.8
Cover                       : Yes
Attachments                 : cover.png

Video
ID                          : 1
Format                      : AVC
Format/Info                 : Advanced Video Codec
Format profile              : Main@L3.1
Format settings, CABAC      : Yes
Format settings, RefFrames  : 3 frames
Codec ID                    : V_MPEG4/ISO/AVC
Duration                    : 25 min 50 s
Bit rate                    : 1 819 kb/s
Width                       : 1 280 pixels
Height                      : 720 pixels
Display aspect ratio        : 16:9
Frame rate mode             : Constant
Frame rate                  : 30.000 FPS
Color space                 : YUV
Chroma subsampling          : 4:2:0
Bit depth                   : 8 bits
Scan type                   : Progressive
Bits/(Pixel*Frame)          : 0.066
Stream size                 : 336 MiB (93%)
Language                    : Russian
Default                     : Yes
Forced                      : No
Color range                 : Limited
Color primaries             : BT.709
Transfer characteristics    : BT.709
Matrix coefficients         : BT.709

Audio
ID                          : 2
Format                      : AAC
Format/Info                 : Advanced Audio Codec
Format profile              : LC
Codec ID                    : A_AAC
Duration                    : 25 min 50 s
Bit rate                    : 126 kb/s
Channel(s)                  : 2 channels
Channel positions           : Front: L R
Sampling rate               : 44.1 kHz
Frame rate                  : 43.066 FPS (1024 SPF)
Compression mode            : Lossy
Stream size                 : 23.2 MiB (6%)
Language                    : Russian
Default                     : Yes
Forced                      : No

[/pre]

[+] "Скриншоты"

       

       

       

       


[+] Всего файлов в раздаче - 1:
Под огнём.mkv360.41 MB

Текущая раздача:
ДатаКомментарии    РазмерПиры
2017-10-01 U Под огнём (2017) WEBRip 720p 360.41 MB ↑ 44 ↓ 7

Показать ещё раздачи по запросу - под огнём возмитель:
2015-11-28 U Игра с огнём [01-04 из 04] (2015) HDTVRip-AVC 2.71 GB ↑ 183 ↓ 116
2015-11-28 U Игра с огнём [01-04 из 04] (2015) SATRip 1К2.37 GB ↑ 766 ↓ 320
2015-11-28 U Игра с огнём [01-04 из 04] (2015) HDTVRip от Files-x 2.15 GB ↑ 119 ↓ 97
2015-11-25 U Бегущий в лабиринте: Испытание огнём / Maze Runner: The Scorch Trials (2015) BDRip 720p от HELLYWOOD | Лицензия 2К5.76 GB ↑ 135 ↓ 114
2015-11-25 U Бегущий в лабиринте: Испытание огнём / Maze Runner: The Scorch Trials (2015) BDRip-AVC от HELLYWOOD | Лицензия 2.91 GB ↑ 179 ↓ 37
2015-11-23 U Бегущий в лабиринте: Испытание огнём / Maze Runner: The Scorch Trials (2015) BDRip от HQ-ViDEO 2.18 GB ↑ 556 ↓ 170
2015-11-22 U Бегущий в лабиринте: Испытание огнём / Maze Runner: The Scorch Trials (2015) BDRip-AVC от New-Team | Лицензия 5К1.46 GB ↑ 2618 ↓ 789

Отзывы
Зарегистрируйтесь чтобы добавить комментарий.
Обратная связь
Copyleft ©