↑↓Torrent.by
Поиск
Логин: Регистрация
Пароль: Восстановить пароль
Загрузка...

Капитан Подштанник: Первый эпический фильм / Captain Underpants: The First Epic Movie (2017) BDRip 720p | L

Скачать kapitan-podshtannik-pervyy-epicheskiy-film-captain-underpants-the-first-epic-movie-2017-bdrip-720p-l.torrent
U Магнитная ссылка Размер: 2.68 GB Раздают: 97 Качают: 38 Добавлен: 2017-10-05 18:49:11
Капитан Подштанник: Первый эпический фильм / Captain Underpants: The First Epic Movie (2017) BDRip 720p | L

Наименование: Капитан Подштанник: Первый эпический фильм
Оригинальное наименование: Captain Underpants: The First Epic Movie
Произведено: США
Категория: мультфильм, боевик, комедия, семейный
Режиссер постановщик: Дэвид Сорен
В главных ролях: Эд Хелмс, Кевин Харт, Ник Кролл, Томас Миддлдитч, Джордан Пил, Кристен Шаал, Ди Ди Решер, Брайан Посен, Дэвид Сорен, Мэл Родригез

О фильме:
Двое учеников начальной школы загипнотизировали директора школы так, что он стал супергероем, помогающим их одноклассникам.

Файл
Качество: BDRip 720p
Видео данные: MKV, 1280x688 (1.85:1), 23.976  fps,  4000 Кбит/с
Аудио данные: Русский (MP3, 2 ch, 320 Кбит/с)
Перевод: Любительский многоголосый (GreenРай Studio)
Продолжительность: 01:29:34

ВНИМАНИЕ! Присутствует реклама!

Релиз:


[+] Mediainfo
General
Unique ID                   : 216483027119178419964480263686699980188 (0xA2DD1D4BCFBFB51EBC99CF418AB5959C)
Complete name               : D:МультикCaptain.Underpants.The.First.Epic.Movie.2017.P.BDRip.720p.mkv
Format                      : Matroska
Format version              : Version 4 / Version 2
File size                   : 2.68 GiB
Duration                    : 1 h 29 min
Overall bit rate mode       : Constant
Overall bit rate            : 4 293 kb/s
Encoded date                : UTC 2017-10-03 06:49:06
Writing application         : mkvmerge v8.3.0 ('Over the Horizon') 64bit
Writing library             : libebml v1.3.1 + libmatroska v1.4.2

Video
ID                          : 1
Format                      : AVC
Format/Info                 : Advanced Video Codec
Format profile              : Main@L3.1
Format settings, CABAC      : Yes
Format settings, ReFrames   : 3 frames
Format settings, GOP        : M=4, N=15
Codec ID                    : V_MPEG4/ISO/AVC
Duration                    : 1 h 29 min
Bit rate mode               : Constant
Bit rate                    : 4 000 kb/s
Width                       : 1 280 pixels
Height                      : 688 pixels
Display aspect ratio        : 1.85:1
Frame rate mode             : Constant
Frame rate                  : 23.976 (23976/1000) FPS
Standard                    : NTSC
Color space                 : YUV
Chroma subsampling          : 4:2:0
Bit depth                   : 8 bits
Scan type                   : Progressive
Bits/(Pixel*Frame)          : 0.189
Stream size                 : 2.47 GiB (92%)
Language                    : English
Default                     : Yes
Forced                      : No
Color range                 : Limited

Audio
ID                          : 2
Format                      : MPEG Audio
Format version              : Version 1
Format profile              : Layer 3
Mode                        : Joint stereo
Codec ID                    : A_MPEG/L3
Codec ID/Hint               : MP3
Duration                    : 1 h 29 min
Bit rate mode               : Constant
Bit rate                    : 320 kb/s
Channel(s)                  : 2 channels
Sampling rate               : 48.0 kHz
Frame rate                  : 41.667 FPS (1152 spf)
Compression mode            : Lossy
Stream size                 : 204 MiB (7%)
Default                     : Yes
Forced                      : No



Скриншоты:
[+] Всего файлов в раздаче - 1:
Captain.Underpants.The.First.Epic.Movie.2017.P.BDRip.720p.mkv2.68 GB

Текущая раздача:
ДатаКомментарии    РазмерПиры
2017-10-05 U Капитан Подштанник: Первый эпический фильм / Captain Underpants: The First Epic Movie (2017) BDRip 720p | L 1 К 2.68 GB ↑ 97 ↓ 38

Показать ещё раздачи по запросу - капитан:
2017-10-12 U Капитан Подштанник: Первый эпический фильм / Captain Underpants: The First Epic Movie (2017) BDRip 720p | Лицензия 4.38 GB ↑ 100 ↓ 36
2017-10-12 U Капитан Подштанник: Первый эпический фильм / Captain Underpants: The First Epic Movie (2017) BDRip 1080p | Лицензия 8.03 GB ↑ 115 ↓ 73
2017-10-12 U Капитан Подштанник: Первый эпический фильм / Captain Underpants: The First Epic Movie (2017) BDRip от MegaPeer | Лицензия 1.46 GB ↑ 87 ↓ 34
2017-10-05 U Капитан Подштанник: Первый эпический фильм / Captain Underpants: The First Epic Movie (2017) HDRip | L 1.37 GB ↑ 67 ↓ 14
2017-08-26 U Капитан Пауэр и Солдаты будущего / Captain Power and the Soldiers of the Future [S01] (1987) DVDRip-AVC | A 8.04 GB ↑ 108 ↓ 35
2017-07-02 U Погоня за прошлым / Капитан Журавлёва [01-16 из 16] (2015) HDTVRip от Files-x 8.59 GB ↑ 134 ↓ 88
2016-10-16 U Капитан Фантастик / Captain Fantastic (2016) HDRip от Scarabey | iTunes 1.45 GB ↑ 339 ↓ 74

Отзывы
solomon
Дата релиза в iTunes: 26 Октября 2017

Зарегистрируйтесь чтобы добавить комментарий.
Обратная связь
Copyleft ©