↑↓Torrent.by
Поиск
Логин: Регистрация
Пароль: Восстановить пароль
Загрузка...

Культ Чаки / Cult of Chucky (2017) BDRip 720p | ViruseProject

Скачать kult-chaki-cult-of-chucky-2017-bdrip-720p-viruseproject.torrent
U Магнитная ссылка Размер: 4.66 GB Раздают: 98 Качают: 41 Добавлен: 2017-10-06 17:29:24
Культ Чаки / Cult of Chucky (2017) BDRip 720p | ViruseProject

Название: Культ Чаки
Оригинальное название: Cult of Chucky
Год выхода: 2017
Жанр: ужасы, триллер
Режиссер: Дон Манчини
В ролях: Дженнифер Тилли, Фиона Дуриф, Брэд Дуриф, Алекс Винсент, Майкл Терриоль, Элизабет Розен, Зак Сантьяго, Грэйс Линн Кунг, Али Татарин, Саммер Х. Хауэлл и др.

О фильме:
Ника Пирс 4 года провела в лечебнице. Ее убеждают в том, что она виновна в гибели семьи, а не кукла Чаки. Когда лечащий врач предлагает новый вариант терапии с куклой с добрым лицом, в лечебнице начинают погибать люди, и Ника начинает думать, что ее кошмары реальны. Энди Барклай повзрослел и спешит на помощь, но ему хочет помешать Тиффани — невеста Чаки, готовая на все, чтобы помочь возлюбленному.

Предыдущая часть про Чаки под названием "Проклятие Чаки" (2013) в озвучании VP - http://rutor.is/torrent/588015/prokljatie-chaki_curse-of-chucky-2013-hdrip-viruseproject

Страна: США
Студия: Universal 1440 Entertainment
Продолжительность: 01:30:56
Перевод: Профессиональный (многоголосый, закадровый) [ViruseProject]

Файл
Кодек: AVC
Качество: BDRip 720p
Видео: 1280x720 (16:9), 23.976 fps, 5 371 Kbps, 8 bits
Звук RU: AC-3, 2 ch, ~ 448 Кбит/с
Звук ENG: DTS, 6 ch, ~ 1 509 Кбит/с
Субтитры: нет

Семпл

Релиз:


[+] MI

Общее
Уникальный идентификатор : 243413918576720604321100289944161710448 (0xB71FD0C26DE08D4682C549FCB6317170)
Полное имя : D:Cult.of.Chucky.2017.720p.ViruseProject.mkv
Формат : Matroska
Версия формата : Version 4 / Version 2
Размер файла : 4,66 Гбайт
Продолжительность : 1 ч. 30 м.
Общий поток : 7329 Кбит/сек
Дата кодирования : UTC 2017-10-06 06:44:08
Программа кодирования : mkvmerge v8.3.0 ('Over the Horizon') 64bit
Библиотека кодирования : libebml v1.3.1 + libmatroska v1.4.2

Видео
Идентификатор : 1
Формат : AVC
Формат/Информация : Advanced Video Codec
Профиль формата : High@L4.1
Параметр CABAC формата : Да
Параметр ReFrames формата : 5 кадров
Идентификатор кодека : V_MPEG4/ISO/AVC
Продолжительность : 1 ч. 30 м.
Битрейт : 5371 Кбит/сек
Ширина : 1280 пикселей
Высота : 720 пикселей
Соотношение сторон : 16:9
Режим частоты кадров : Постоянный
Частота кадров : 23,976 кадра/сек
Цветовое пространство : YUV
Субдискретизация насыщенности : 4:2:0
Битовая глубина : 8 бит
Тип развёртки : Прогрессивная
Бит/(Пиксели*Кадры) : 0.243
Размер потока : 3,41 Гбайт (73%)
Библиотека кодирования : x264 core 152 r2851 ba24899
Настройки программы : cabac=1 / ref=5 / deblock=1:0:0 / analyse=0x3:0x133 / me=umh / subme=7 / psy=1 / psy_rd=1.00:0.00 / mixed_ref=1 / me_range=16 / chroma_me=1 / trellis=1 / 8x8dct=1 / cqm=0 / deadzone=21,11 / fast_pskip=0 / chroma_qp_offset=-2 / threads=22 / lookahead_threads=3 / sliced_threads=0 / nr=0 / decimate=1 / interlaced=0 / bluray_compat=0 / constrained_intra=0 / bframes=3 / b_pyramid=2 / b_adapt=1 / b_bias=0 / direct=1 / weightb=1 / open_gop=0 / weightp=2 / keyint=250 / keyint_min=23 / scenecut=40 / intra_refresh=0 / rc_lookahead=40 / rc=2pass / mbtree=1 / bitrate=5371 / ratetol=1.0 / qcomp=0.60 / qpmin=0 / qpmax=69 / qpstep=4 / cplxblur=20.0 / qblur=0.5 / ip_ratio=1.40 / aq=1:1.00
Язык : English
Default : Да
Forced : Нет

Аудио #1
Идентификатор : 2
Формат : AC-3
Формат/Информация : Audio Coding 3
Расширение режима : CM (complete main)
Параметр Endianness формата : Big
Идентификатор кодека : A_AC3
Продолжительность : 1 ч. 30 м.
Вид битрейта : Постоянный
Битрейт : 448 Кбит/сек
Каналы : 2 канала
Расположение каналов : Front: L R
Частота : 48,0 КГц
Частота кадров : 31,250 кадров/сек (1536 spf)
Метод сжатия : С потерями
Размер потока : 291 Мбайт (6%)
Заголовок : ViruseProject
Язык : Russian
Default : Да
Forced : Нет

Аудио #2
Идентификатор : 3
Формат : DTS
Формат/Информация : Digital Theater Systems
Режим : 16
Параметр Endianness формата : Big
Идентификатор кодека : A_DTS
Продолжительность : 1 ч. 30 м.
Вид битрейта : Постоянный
Битрейт : 1509 Кбит/сек
Каналы : 6 каналов
Расположение каналов : Front: L C R, Side: L R, LFE
Частота : 48,0 КГц
Частота кадров : 93,750 кадра/сек (512 spf)
Битовая глубина : 24 бит
Метод сжатия : С потерями
Размер потока : 982 Мбайт (21%)
Язык : English
Default : Нет
Forced : Нет



Скриншоты:
[+] Всего файлов в раздаче - 1:
Cult.of.Chucky.2017.720p.ViruseProject.mkv4.66 GB

Текущая раздача:
ДатаКомментарии    РазмерПиры
2017-10-06 U Культ Чаки / Cult of Chucky (2017) BDRip 720p | ViruseProject 4.66 GB ↑ 98 ↓ 41

Показать ещё раздачи по запросу - культ:
2017-10-06 U Культ Чаки / Cult of Chucky (2017) BDRip от MegaPeer | Расширенная версия | P 1К1.46 GB ↑ 103 ↓ 67
2017-10-06 U Культ Чаки / Cult of Chucky (2017) HDRip | ViruseProject 1.46 GB ↑ 94 ↓ 43
2017-10-06 U Культ Чаки / Cult of Chucky (2017) BDRip от Dalemake | UNRATED | L 1.46 GB ↑ 52 ↓ 17
2017-09-27 U Культ Чаки / Cult of Chucky (2017) BDRip 720p | L1 3.82 GB ↑ 137 ↓ 50
2017-09-27 U Культ Чаки / Cult of Chucky (2017) BDRip 1080p | L1 6.80 GB ↑ 73 ↓ 18
2017-09-25 U Культ Чаки / Cult of Chucky (2017) DVDRip | L1 1.23 GB ↑ 335 ↓ 255
2016-02-20 U Культ [S01] (2015) HDTVRip от GeneralFilm 7.04 GB ↑ 35 ↓ 85

Отзывы
Зарегистрируйтесь чтобы добавить комментарий.
Обратная связь
Copyleft ©