↑↓Torrent.by
Поиск
Логин: Регистрация
Пароль: Восстановить пароль
Загрузка...

Лжец, Великий и Ужасный / The Wizard of Lies (2017) BDRip-HEVC 1080p от HEVC CLUB | P

Скачать lzhec-velikiy-i-uzhasnyy-the-wizard-of-lies-2017-bdrip-hevc-1080p-ot-club-p.torrent
U Магнитная ссылка Размер: 2.66 GB Раздают: 116 Качают: 44 Добавлен: 2017-10-06 17:29:35
Лжец, Великий и Ужасный / The Wizard of Lies (2017) BDRip-HEVC 1080p от HEVC CLUB | P

Название: Лжец, Великий и Ужасный
Оригинальное название: The Wizard of Lies

Год выпуска: 2017
Страна: США
Жанр:  Драма, криминал, биография
Продолжительность: 02:12:42
Перевод: Профессиональный многоголосый закадровый [NOVAMEDIA]
Субтитры: Отсутствуют

В ролях: Мишель Пфайффер, Роберт Де Ниро, Хэнк Азария, Кристен Коннолли, Алессандро Нивола, Келли АуКойн, Нэйтан Дарроу, Лили Рэйб, Майкл А. Гурджиан, Кэтрин Нардуччи
Режиссёр: Бэрри Левинсон

Описание: История Берни Мэдоффа — бизнесмена, который построил крупнейшую в мире финансовую пирамиду и замаскировал её под инвестиционный фонд. Мэдофф был приговорен к 150 годам тюремного заключения, а его незаконная деятельность обернулась катастрофой для всей семьи.

Качество: BDRip-HEVC 1080p
Формат: MKV
Видео кодек: x265@10bit
Аудио кодек: AC3
Видео: 1920x800, 23,976 fps, HEVC, ~1847 kbps, 10bit
Аудио: Rus, 48 kHz/16-bit, AC3 5.1, ~384 kbps | Многоголосый закадровый
Аудио: Eng, 48 kHz/16-bit, AC3 5.1, ~640 kbps | Оригинал
Навигация по главам: Присутствует

Автор рипа: Alex_A

Семпл


[+] Внимание!
- H.265/HEVC (High Efficiency Video Coding) - это новый стандарт кодирования видео.
- Стандарт H.265/HEVC является логическим продолжением стандарта H.264/AVC (Advanced Video Coding), и характеризуется более эффективными алгоритмами сжатия, а также поддержкой высокого разрешения вплоть до 8K UHD (8192x4320). Первая версия стандарта H.265 была опубликована в начале 2013 года.
- Рипы в фомате HEVC поддерживается не всеми аппаратными проигрывателями.
- Для корректного воспроизведения может потребоваться обновление ПО.
- Владельцам несовместимого железа просьба не беспокоить, есть альтернативные релизы.




[+] Медиаинфо
Общее
Unique ID                                : 226222375226069858683427745625155170457 (0xAA30D83B3BBD56969CEDD59DEAA5F099)
Complete name                            : d:HEVCThe.Wizard.of.Lies.2017.1080p_HEVCCLUB.mkv
Format                                   : Matroska
Format version                           : Version 4 / Version 2
File size                                : 2,66 Гбайт
Duration                                 : 2 ч. 12 м.
Overall bit rate                         : 2873 Кбит/сек
Movie name                               : The Wizard of Lies (2017) - HEVC.CLUB
Encoded date                             : UTC 2017-10-05 21:23:39
Writing application                      : mkvmerge v16.0.0 ('Protest') 64-bit
Writing library                          : libebml v1.3.5 + libmatroska v1.4.8
Cover                                    : Yes
Attachments                              : Cover.jpg

Видео
ID                                       : 1
Format                                   : HEVC
Format/Info                              : High Efficiency Video Coding
Format profile                           : Main 10@L4.1@High
Codec ID                                 : V_MPEGH/ISO/HEVC
Duration                                 : 2 ч. 12 м.
Bit rate                                 : 1847 Кбит/сек
Width                                    : 1920 пикселей
Height                                   : 1080 пикселей
Display aspect ratio                     : 16:9
Frame rate mode                          : Постоянный
Frame rate                               : 23,976 (24000/1001) кадра/сек
Color space                              : YUV
Chroma subsampling                       : 4:2:0
Bit depth                                : 10 бит
Bits/(Pixel*Frame)                       : 0.037
Stream size                              : 1,71 Гбайт (64%)
Title                                    : HEVC.CLUB
Writing library                          : x265 2.5+20-0967d0add97e:[Windows][GCC 7.2.0][64 bit] 10bit
Encoding settings                        : cpuid=1173503 / frame-threads=3 / numa-pools=8 / wpp / pmode / no-pme / no-psnr / ssim / log-level=2 / input-csp=1 / input-res=1920x1080 / interlace=0 / total-frames=0 / level-idc=41 / high-tier=1 / uhd-bd=0 / ref=5 / no-allow-non-conformance / repeat-headers / annexb / no-aud / no-hrd / info / hash=0 / no-temporal-layers / open-gop / min-keyint=23 / keyint=250 / bframes=10 / b-adapt=2 / b-pyramid / bframe-bias=0 / rc-lookahead=60 / lookahead-slices=1 / scenecut=40 / no-intra-refresh / ctu=64 / min-cu-size=8 / no-rect / no-amp / max-tu-size=32 / tu-inter-depth=3 / tu-intra-depth=3 / limit-tu=0 / rdoq-level=1 / dynamic-rd=2.00 / no-ssim-rd / signhide / no-tskip / nr-intra=0 / nr-inter=0 / no-constrained-intra / no-strong-intra-smoothing / max-merge=2 / limit-refs=0 / no-limit-modes / me=1 / subme=7 / merange=64 / temporal-mvp / weightp / weightb / no-analyze-src-pics / deblock=-3:-3 / no-sao / no-sao-non-deblock / rd=4 / no-early-skip / no-rskip / no-fast-intra / no-tskip-fast / no-cu-lossless / no-b-intra / no-splitrd-skip / rdpenalty=0 / psy-rd=1.75 / psy-rdoq=2.50 / no-rd-refine / analysis-reuse-mode=0 / no-lossless / cbqpoffs=0 / crqpoffs=0 / rc=crf / crf=22.0 / qcomp=0.80 / qpstep=6 / stats-write=0 / stats-read=0 / vbv-maxrate=50000 / vbv-bufsize=50000 / vbv-init=0.9 / crf-max=0.0 / crf-min=0.0 / ipratio=1.40 / pbratio=1.10 / aq-mode=1 / aq-strength=0.20 / no-cutree / zone-count=0 / no-strict-cbr / qg-size=32 / no-rc-grain / qpmax=69 / qpmin=0 / no-const-vbv / sar=1 / overscan=0 / videoformat=5 / range=0 / colorprim=2 / transfer=2 / colormatrix=2 / chromaloc=0 / display-window=0 / max-cll=0,0 / min-luma=0 / max-luma=1023 / log2-max-poc-lsb=8 / vui-timing-info / vui-hrd-info / slices=1 / opt-qp-pps / opt-ref-list-length-pps / no-multi-pass-opt-rps / scenecut-bias=0.05 / no-opt-cu-delta-qp / aq-motion / no-hdr / no-hdr-opt / no-dhdr10-opt / analysis-reuse-level=5 / scale-factor=0 / refine-intra=0 / refine-inter=0 / refine-mv=0 / no-limit-sao / ctu-info=0
Default                                  : Да
Forced                                   : Да

Аудио #1
ID                                       : 2
Format                                   : AC-3
Format/Info                              : Audio Coding 3
Format settings, Endianness              : Big
Codec ID                                 : A_AC3
Duration                                 : 2 ч. 12 м.
Bit rate mode                            : Постоянный
Bit rate                                 : 384 Кбит/сек
Channel(s)                               : 6 каналов
Channel positions                        : Front: L C R, Side: L R, LFE
Sampling rate                            : 48,0 КГц
Frame rate                               : 31,250 кадров/сек (1536 SPF)
Bit depth                                : 16 бит
Compression mode                         : С потерями
Stream size                              : 364 Мбайт (13%)
Title                                    : MVO [NOVAMEDIA]
Language                                 : Russian
Service kind                             : Complete Main
Default                                  : Да
Forced                                   : Нет

Аудио #2
ID                                       : 3
Format                                   : AC-3
Format/Info                              : Audio Coding 3
Format settings, Endianness              : Big
Codec ID                                 : A_AC3
Duration                                 : 2 ч. 12 м.
Bit rate mode                            : Постоянный
Bit rate                                 : 640 Кбит/сек
Channel(s)                               : 6 каналов
Channel positions                        : Front: L C R, Side: L R, LFE
Sampling rate                            : 48,0 КГц
Frame rate                               : 31,250 кадров/сек (1536 SPF)
Bit depth                                : 16 бит
Compression mode                         : С потерями
Stream size                              : 607 Мбайт (22%)
Title                                    : Original
Language                                 : English
Service kind                             : Complete Main
Default                                  : Нет
Forced                                   : Нет




Скриншоты:
[+] Всего файлов в раздаче - 1:
The.Wizard.of.Lies.2017.1080p_HEVCCLUB.mkv2.66 GB

Текущая раздача:
ДатаКомментарии    РазмерПиры
2017-10-06 U Лжец, Великий и Ужасный / The Wizard of Lies (2017) BDRip-HEVC 1080p от HEVC CLUB | P 2.66 GB ↑ 116 ↓ 44

Показать ещё раздачи по запросу - лжец:
2017-10-07 U Лжец, Великий и Ужасный / The Wizard of Lies (2017) BDRip-AVC от OlLanDGroup | P 2.30 GB ↑ 140 ↓ 33
2017-10-05 U Лжец, Великий и Ужасный / The Wizard of Lies (2017) BDRemux 1080p | P 32.61 GB ↑ 37 ↓ 21
2017-10-04 U Лжец, Великий и Ужасный / The Wizard of Lies (2017) BDRip от MegaPeer | P 2.12 GB ↑ 122 ↓ 72
2017-10-04 U Лжец, Великий и Ужасный / The Wizard of Lies (2017) BDRip от MegaPeer | P 1.46 GB ↑ 69 ↓ 44
2017-10-04 U Лжец, Великий и Ужасный / The Wizard of Lies (2017) HDTVRip-AVC | P 747.94 MB ↑ 40 ↓ 30
2017-10-03 U Лжец, Великий и Ужасный / The Wizard of Lies (2017) HDTVRip | P 2.19 GB ↑ 127 ↓ 87
2017-10-03 U Лжец, Великий и Ужасный / The Wizard of Lies (2017) HDTVRip | P 1.46 GB ↑ 303 ↓ 152

Отзывы
Зарегистрируйтесь чтобы добавить комментарий.
Обратная связь
Copyleft ©