↑↓Torrent.by
Поиск
Логин: Регистрация
Пароль: Восстановить пароль
Загрузка...

Ольга [S01-02] (2016-2017) WEB-DLRip от Generalfilm | КПК

Скачать olga-s01-02-2016-2017-web-dlrip-ot-generalfilm-kpk.torrent
U Магнитная ссылка Размер: 3.86 GB Раздают: 122 Качают: 216 Добавлен: 2017-10-07 18:07:06
Ольга [S01-02] (2016-2017) WEB-DLRip от Generalfilm | КПК

Оригинальное название: Ольга
Год выпуска: 2016
Жанр:  Комедия, драма
Режиссёр: Алексей Нужный, Игорь Волошин
В ролях: Яна Троянова, Василий Кортуков, Алина Алексеева, Ксения Суркова, Сергей Романович, Максим Костромыкин, Фархад Гусейнов, Борис Дергачев, Александр Шам, Александр Никольский

О фильме:
Ольга — обычная русская женщина, которая одна «воспитывает» детей от разных браков, отца-алкоголика и бесшабашную сестру. При этом она остаётся жизнерадостной, сохраняет оптимизм и верит в «светлое» будущее.

Страна: Россия
Студия: Good Story Media
Продолжительность: 40 x ~ 00:23:00
Перевод: Не требуется

Файл
Формат: MP4
Качество: WEB-DLRip | КПК
Видео: MPEG-4 AVC (x264), 640x360, ~500 kbps, 25.000 fps
Аудио: AAC LC, 48.0 KHz, 2 ch, 128 Kbps
Субтитры: Нет

Семпл

Релиз:


[+] MI
Complete name               : E:KinoOl'ga.AVC.KPK.GFOl'ga.S01.2016.AVC.WEB-DLRip.KPK.GFOl'ga.s01e20.2016.AVC.WEB-DLRip.KPK.GF.mp4
Format                      : MPEG-4
Codec ID                    : M4V  (isom/iso2/avc1)
File size                   : 106 MiB
Duration                    : 23mn 17s
Overall bit rate mode       : Variable
Overall bit rate            : 634 Kbps
Writing application         : Lavf53.19.0

Video
ID                          : 1
Format                      : AVC
Format/Info                 : Advanced Video Codec
Format profile              : High@L4.1
Format settings, CABAC      : Yes
Format settings, ReFrames   : 8 frames
Codec ID                    : avc1
Codec ID/Info               : Advanced Video Coding
Duration                    : 23mn 17s
Bit rate                    : 500 Kbps
Width                       : 640 pixels
Height                      : 360 pixels
Display aspect ratio        : 16:9
Frame rate mode             : Constant
Frame rate                  : 25.000 fps
Color space                 : YUV
Chroma subsampling          : 4:2:0
Bit depth                   : 8 bits
Scan type                   : Progressive
Bits/(Pixel*Frame)          : 0.087
Stream size                 : 83.3 MiB (79%)
Writing library             : x264 core 146 r2538 121396c
Encoding settings           : cabac=1 / ref=8 / deblock=1:-1:-1 / analyse=0x3:0x133 / me=umh / subme=10 / psy=1 / psy_rd=1.00:0.00 / mixed_ref=1 / me_range=24 / chroma_me=1 / trellis=2 / 8x8dct=1 / cqm=0 / deadzone=21,11 / fast_pskip=1 / chroma_qp_offset=-2 / threads=12 / lookahead_threads=2 / sliced_threads=0 / nr=0 / decimate=1 / interlaced=0 / bluray_compat=0 / constrained_intra=0 / bframes=8 / b_pyramid=2 / b_adapt=2 / b_bias=0 / direct=3 / weightb=1 / open_gop=0 / weightp=2 / keyint=250 / keyint_min=126 / scenecut=40 / intra_refresh=0 / rc_lookahead=40 / rc=2pass / mbtree=1 / bitrate=500 / ratetol=1.0 / qcomp=0.60 / qpmin=0 / qpmax=69 / qpstep=4 / cplxblur=20.0 / qblur=0.5 / ip_ratio=1.40 / aq=1:1.00
Menus                       : 3

Audio
ID                          : 2
Format                      : AAC
Format/Info                 : Advanced Audio Codec
Format profile              : LC
Codec ID                    : 40
Duration                    : 23mn 17s
Bit rate mode               : Variable
Bit rate                    : 128 Kbps
Channel(s)                  : 2 channels
Channel positions           : Front: L R
Sampling rate               : 48.0 KHz
Frame rate                  : 46.875 fps (1024 spf)
Compression mode            : Lossy
Stream size                 : 21.2 MiB (20%)
Default                     : Yes
Alternate group             : 1
Menus                       : 3



Скриншоты:
[+] Всего файлов в раздаче - 40:

Текущая раздача:
ДатаКомментарии    РазмерПиры
2017-10-07 U Ольга [S01-02] (2016-2017) WEB-DLRip от Generalfilm | КПК 3.86 GB ↑ 122 ↓ 216

Показать ещё раздачи по запросу - ольга:
2017-10-07 U Ольга Ивенская - Кухонные шпаргалки (2016) RTF, FB2 172.45 MB ↑ 131 ↓ 38
2017-10-06 U Ольга [S02] (2017) WEB-DLRip-AVC от Files-x 5.33 GB ↑ 50 ↓ 90
2017-10-06 U Ольга [S02] (2017) WEB-DLRip от Files-x 5.88 GB ↑ 80 ↓ 185
2017-10-06 U Ольга: За кадром (2017) HDTVRip от GeneralFilm 221.42 MB ↑ 243 ↓ 69
2017-10-05 U Ольга [S02] (2017) WEB-DL 720p от Files-x 11.11 GB ↑ 98 ↓ 412
2017-10-05 U Ольга [S02] (2017) HDTVRip-AVC от GeneralFilm 6.36 GB ↑ 107 ↓ 426
2017-10-05 U Ольга [S02] (2017) WEB-DLRip от ivandubskoj 5.81 GB ↑ 39 ↓ 174

Отзывы
Зарегистрируйтесь чтобы добавить комментарий.
Обратная связь
Copyleft ©