↑↓Torrent.by
Поиск
Логин: Регистрация
Пароль: Восстановить пароль
Загрузка...

Хранители сокровищ / Treasure Guards (2011) BDRip 1080p | P

Скачать hraniteli-sokrovisch-treasure-guards-2011-bdrip-1080p-p.torrent
U Магнитная ссылка Размер: 8.51 GB Раздают: 93 Качают: 118 Добавлен: 2017-10-07 18:07:52
Хранители сокровищ / Treasure Guards (2011) BDRip 1080p | P

Название: Хранители сокровищ
Оригинальное название: Treasure Guards
Год выхода: 2011
Страна: Германия
Студия: Tandem Communications, Film Afrika Worldwide, Pro 7
Продолжительность: 01:36:51
Жанр: приключения

Режиссер: Иэн Б. МакДональд
В ролях: Анна Фрил, Рауль Бова, Фолькер Бруч, Акрам Элли, Хейн Де Фриз, Джордж Джейкос, Андре Джейкобс, Флорентина Ламе, Патрик Листер, Хосе Морейра Ваз, ...

Перевод:
- Профессиональный (многоголосый, закадровый) R5 от «Lizard Cinema Trade»
- Субтитры

О фильме: Во время раскопок археолог Виктория Картер находит древнюю карту, указывающую путь к Печати Соломона — древнему амулету, полученному царем от самого Бога! Не желая делиться открытием, Виктория решает немедленно отправиться на поиски. Но слухи распространяются очень быстро, тем более, что на Печать давно идет охота по всему миру! Также узнают о находке и в Ватикане, откуда, опасаясь мощи хранящихся там артефактов, отправляют к Виктории на помощь известного ученого Тедди Картера. Он должен сделать все, чтобы Печать не попала в плохие руки!…

Кодек: x264
Качество: BDRip 1080p
Видео: 1920x1080, 12000 kbps, 24 fps
Аудио #1: AC-3, 6 ch, 384 kbps (Rus) - MVO R5 «Lizard Cinema Trade»
Аудио #2: AC-3, 2 ch, 192 kbps (Eng)
Субтитры: Русские, Английские


[+] Дополнительная информация
За исходник спасибо - arxivariys



[+] MediaInfo

x264 [info]: frame I:1134  Avg QP:15.73  size:227127
x264 [info]: frame P:34050 Avg QP:17.85  size:103697
x264 [info]: frame B:104288 Avg QP:19.66  size: 47245
x264 [info]: consecutive B-frames:  3.7%  4.2% 12.4% 20.3% 18.1% 34.1%  4.9%  0.6%  0.8%  0.1%  0.3%  0.3%  0.2%

Общее
Уникальный идентификатор : 235185882435369213014960355749009698406 (0xB0EF2741CF890ECB8DCC3AEA59522E66)
Полное имя : Хранители сокровищ (Treasure Guards) 2011 BDRip 1080p.mkv
Формат : Matroska
Версия формата : Version 2
Размер файла : 8,51 Гбайт
Продолжительность : 1 ч. 36 м.
Общий поток : 12,6 Мбит/сек
Дата кодирования : UTC 2017-06-04 11:22:26
Программа кодирования : mkvmerge v4.0.0 ('The Stars were mine') сборка от Jun 6 2010 16:18:42
Библиотека кодирования : libebml v1.0.0 + libmatroska v1.0.0

Видео
Идентификатор : 1
Формат : AVC
Формат/Информация : Advanced Video Codec
Профиль формата : High@L4.1
Параметр CABAC формата : Да
Параметр ReFrames формата : 4 кадра
Идентификатор кодека : V_MPEG4/ISO/AVC
Продолжительность : 1 ч. 36 м.
Битрейт : 12,0 Мбит/сек
Ширина : 1920 пикселей
Высота : 1080 пикселей
Соотношение сторон : 16:9
Режим частоты кадров : Постоянный
Частота кадров : 24,000 кадра/сек
Цветовое пространство : YUV
Субдискретизация насыщенности : 4:2:0
Битовая глубина : 8 бит
Тип развёртки : Прогрессивная
Бит/(Пиксели*Кадры) : 0.241
Размер потока : 7,95 Гбайт (93%)
Библиотека кодирования : x264 core 146 r2538 121396c
Настройки программы : cabac=1 / ref=4 / deblock=1:-2:-2 / analyse=0x3:0x133 / me=umh / subme=11 / psy=1 / psy_rd=1.00:0.00 / mixed_ref=1 / me_range=32 / chroma_me=1 / trellis=2 / 8x8dct=1 / cqm=0 / deadzone=21,11 / fast_pskip=0 / chroma_qp_offset=-2 / threads=12 / lookahead_threads=2 / sliced_threads=0 / nr=0 / decimate=0 / interlaced=0 / bluray_compat=0 / constrained_intra=0 / bframes=12 / b_pyramid=2 / b_adapt=2 / b_bias=0 / direct=3 / weightb=1 / open_gop=0 / weightp=2 / keyint=240 / keyint_min=24 / scenecut=40 / intra_refresh=0 / rc=2pass / mbtree=0 / bitrate=12000 / ratetol=1.0 / qcomp=0.60 / qpmin=0 / qpmax=69 / qpstep=4 / cplxblur=20.0 / qblur=0.5 / ip_ratio=1.40 / pb_ratio=1.30 / aq=3:0.80
Язык : German
Default : Нет
Forced : Нет

Аудио #1
Идентификатор : 2
Формат : AC-3
Формат/Информация : Audio Coding 3
Расширение режима : CM (complete main)
Параметр Endianness формата : Big
Идентификатор кодека : A_AC3
Продолжительность : 1 ч. 36 м.
Вид битрейта : Постоянный
Битрейт : 384 Кбит/сек
Каналы : 6 каналов
Расположение каналов : Front: L C R, Side: L R, LFE
Частота : 48,0 КГц
Частота кадров : 31,250 кадров/сек (1536 spf)
Метод сжатия : С потерями
Размер потока : 266 Мбайт (3%)
Заголовок : MVO R5 «Lizard Cinema Trade»
Язык : Russian
Default : Нет
Forced : Нет

Аудио #2
Идентификатор : 3
Формат : AC-3
Формат/Информация : Audio Coding 3
Расширение режима : CM (complete main)
Параметр Endianness формата : Big
Идентификатор кодека : A_AC3
Продолжительность : 1 ч. 36 м.
Вид битрейта : Постоянный
Битрейт : 192 Кбит/сек
Каналы : 2 канала
Расположение каналов : Front: L R
Частота : 48,0 КГц
Частота кадров : 31,250 кадров/сек (1536 spf)
Метод сжатия : С потерями
Размер потока : 133 Мбайт (2%)
Язык : English
Default : Нет
Forced : Нет

Текст #1
Идентификатор : 4
Формат : UTF-8
Идентификатор кодека : S_TEXT/UTF8
Идентификатор кодека/Информация : UTF-8 Plain Text
Язык : Russian
Default : Нет
Forced : Нет

Текст #2
Идентификатор : 5
Формат : UTF-8
Идентификатор кодека : S_TEXT/UTF8
Идентификатор кодека/Информация : UTF-8 Plain Text
Язык : English
Default : Нет
Forced : Нет



Скриншоты:
[+] Всего файлов в раздаче - 1:
Хранители сокровищ (Treasure Guards) 2011 BDRip 1080p.mkv8.51 GB

Текущая раздача:
ДатаКомментарии    РазмерПиры
2017-10-07 U Хранители сокровищ / Treasure Guards (2011) BDRip 1080p | P 2 К 8.51 GB ↑ 93 ↓ 118

Похожие раздачи по запросу - хранители:
2017-07-03 U Хранители / Watchmen (2009) BDRip-HEVC 1080p от ХиМиК | D, P, A | Максимальная версия 10.97 GB ↑ 77 ↓ 86
2017-03-16 U NG: Хранители сокровищ Египта / Egypt's Treasure Guardians (2016) HDTVRip от Kaztorrents | P1 629.61 MB ↑ 51 ↓ 3
2016-04-08 U Хранители Мира. Последняя Надежда (2016) PC 792.74 MB ↑ 168 ↓ 24
2014-03-11 U Хранители / Watchmen (2009) BDRip 1080p | Театральная версия 3К9.84 GB ↑ 1266 ↓ 5

Отзывы
jackdaniels
Виктория и Тедди однофамильцы? Раздающему респект в любом случае

tsvircko
Сокровища на первом скрине?

Зарегистрируйтесь чтобы добавить комментарий.
Обратная связь
Copyleft ©