↑↓Torrent.by
Поиск
Логин: Регистрация
Пароль: Восстановить пароль
Загрузка...

Человек-паук: Возвращение домой / Spider-Man: Homecoming (2017) BDRip-HEVC 1080p от HEVC CLUB | iTunes

Скачать chelovek-pauk-vozvraschenie-domoy-spider-man-homecoming-2017-bdrip-hevc-1080p-ot-club-itunes.torrent
U Магнитная ссылка Размер: 3.95 GB Раздают: 137 Качают: 75 Добавлен: 2017-10-08 00:21:07
Человек-паук: Возвращение домой / Spider-Man: Homecoming (2017) BDRip-HEVC 1080p от HEVC CLUB | iTunes

Название: Человек-паук: Возвращение домой
Оригинальное название: Spider-Man: Homecoming

Год выпуска: 2017
Страна: США
Жанр:  Фантастика, боевик, приключения
Продолжительность: 02:13:35
Перевод: Дублированный [iTunes]
Субтитры: Русские, украинские, английские

В ролях: Том Холланд (II), Роберт Дауни мл., Майкл Китон, Мариса Томей, Джон Фавро, Джейкоб Баталон, Зендея, Лора Хэрриер, Тони Револори, Дональд Гловер
Режиссёр: Джон Уоттс

Описание: После исторической встречи с командой Мстителей Питер Паркер возвращается домой, стараясь зажить обычной жизнью под опекой своей тёти Мэй. Но теперь за Питером приглядывает ещё кое-что… Тони Старк видел Человека-Паука в деле и должен стать его наставником. Когда новый злодей Стервятник угрожает уничтожить всё, что дорого Питеру, приходит время доказать всем, что такое настоящий супергерой.

Качество: BDRip-HEVC 1080p
Формат: MKV
Видео кодек: x265@10bit
Аудио кодек: AC3
Видео: 1920x804, 23,976 fps, HEVC, ~3388 kbps, 10bit
Аудио: Rus, 48 kHz/16-bit, AC3 5.1, ~384 kbps | Дублированный
Аудио: Ukr, 44,1 kHz/16-bit, AAC 2.0, ~192 kbps | Дублированный
Аудио: Eng, 48 kHz/16-bit, AC3 5.1, ~640 kbps | Оригинал
Навигация по главам: Присутствует

Автор рипа: Alex_A

Семпл


[+] Внимание!
- H.265/HEVC (High Efficiency Video Coding) - это новый стандарт кодирования видео.
- Стандарт H.265/HEVC является логическим продолжением стандарта H.264/AVC (Advanced Video Coding), и характеризуется более эффективными алгоритмами сжатия, а также поддержкой высокого разрешения вплоть до 8K UHD (8192x4320). Первая версия стандарта H.265 была опубликована в начале 2013 года.
- Рипы в фомате HEVC поддерживается не всеми аппаратными проигрывателями.
- Для корректного воспроизведения может потребоваться обновление ПО.
- Владельцам несовместимого железа просьба не беспокоить, есть альтернативные релизы.



[+] Медиаинфо
General
Unique ID                                : 248738010043183112078307794751217495274 (0xBB2132BC3FA55B3E8F0F1093FF846CEA)
Complete name                            : d:HEVCSpider Man Homecoming (2017)Spider.Man.Homecoming.2017.iTunes.1080p_HEVCCLUB.mkv
Format                                   : Matroska
Format version                           : Version 4 / Version 2
File size                                : 3.95 GiB
Duration                                 : 2 h 13 min
Overall bit rate                         : 4 232 kb/s
Movie name                               : Spider-Man: Homecoming (2017) - HEVC.CLUB
Encoded date                             : UTC 2017-10-07 06:33:08
Writing application                      : mkvmerge v16.0.0 ('Protest') 64-bit
Writing library                          : libebml v1.3.5 + libmatroska v1.4.8
Cover                                    : Yes
Attachments                              : Cover.jpg

Video
ID                                       : 1
Format                                   : HEVC
Format/Info                              : High Efficiency Video Coding
Format profile                           : Main 10@L4.1@High
Codec ID                                 : V_MPEGH/ISO/HEVC
Duration                                 : 2 h 13 min
Bit rate                                 : 3 388 kb/s
Width                                    : 1 920 pixels
Height                                   : 804 pixels
Display aspect ratio                     : 2.40:1
Frame rate mode                          : Constant
Frame rate                               : 23.976 (24000/1001) FPS
Color space                              : YUV
Chroma subsampling                       : 4:2:0
Bit depth                                : 10 bits
Bits/(Pixel*Frame)                       : 0.092
Stream size                              : 3.16 GiB (80%)
Title                                    : HEVC.CLUB
Writing library                          : x265 2.5+20-0967d0add97e:[Windows][GCC 7.2.0][64 bit] 10bit
Encoding settings                        : cpuid=1173503 / frame-threads=3 / numa-pools=8 / wpp / pmode / no-pme / no-psnr / ssim / log-level=2 / input-csp=1 / input-res=1920x804 / interlace=0 / total-frames=0 / level-idc=41 / high-tier=1 / uhd-bd=0 / ref=6 / no-allow-non-conformance / repeat-headers / annexb / no-aud / no-hrd / info / hash=0 / no-temporal-layers / open-gop / min-keyint=23 / keyint=250 / bframes=10 / b-adapt=2 / b-pyramid / bframe-bias=0 / rc-lookahead=60 / lookahead-slices=1 / scenecut=40 / no-intra-refresh / ctu=64 / min-cu-size=8 / no-rect / no-amp / max-tu-size=32 / tu-inter-depth=3 / tu-intra-depth=3 / limit-tu=0 / rdoq-level=1 / dynamic-rd=2.00 / no-ssim-rd / signhide / no-tskip / nr-intra=0 / nr-inter=0 / no-constrained-intra / no-strong-intra-smoothing / max-merge=2 / limit-refs=0 / no-limit-modes / me=1 / subme=7 / merange=64 / temporal-mvp / weightp / weightb / no-analyze-src-pics / deblock=-3:-3 / no-sao / no-sao-non-deblock / rd=4 / no-early-skip / no-rskip / no-fast-intra / no-tskip-fast / no-cu-lossless / no-b-intra / no-splitrd-skip / rdpenalty=0 / psy-rd=1.75 / psy-rdoq=2.50 / no-rd-refine / analysis-reuse-mode=0 / no-lossless / cbqpoffs=0 / crqpoffs=0 / rc=crf / crf=22.0 / qcomp=0.80 / qpstep=6 / stats-write=0 / stats-read=0 / vbv-maxrate=50000 / vbv-bufsize=50000 / vbv-init=0.9 / crf-max=0.0 / crf-min=0.0 / ipratio=1.50 / pbratio=1.00 / aq-mode=1 / aq-strength=0.20 / no-cutree / zone-count=0 / no-strict-cbr / qg-size=32 / no-rc-grain / qpmax=69 / qpmin=0 / no-const-vbv / sar=1 / overscan=0 / videoformat=5 / range=0 / colorprim=2 / transfer=2 / colormatrix=2 / chromaloc=0 / display-window=0 / max-cll=0,0 / min-luma=0 / max-luma=1023 / log2-max-poc-lsb=8 / vui-timing-info / vui-hrd-info / slices=1 / opt-qp-pps / opt-ref-list-length-pps / no-multi-pass-opt-rps / scenecut-bias=0.05 / no-opt-cu-delta-qp / aq-motion / no-hdr / no-hdr-opt / no-dhdr10-opt / analysis-reuse-level=5 / scale-factor=0 / refine-intra=0 / refine-inter=0 / refine-mv=0 / no-limit-sao / ctu-info=0
Default                                  : Yes
Forced                                   : Yes

Audio #1
ID                                       : 2
Format                                   : AC-3
Format/Info                              : Audio Coding 3
Format settings, Endianness              : Big
Codec ID                                 : A_AC3
Duration                                 : 2 h 13 min
Bit rate mode                            : Constant
Bit rate                                 : 384 kb/s
Channel(s)                               : 6 channels
Channel positions                        : Front: L C R, Side: L R, LFE
Sampling rate                            : 48.0 kHz
Frame rate                               : 31.250 FPS (1536 SPF)
Bit depth                                : 16 bits
Compression mode                         : Lossy
Stream size                              : 367 MiB (9%)
Title                                    : Dub [iTunes]
Language                                 : Russian
Service kind                             : Complete Main
Default                                  : Yes
Forced                                   : No

Audio #2
ID                                       : 3
Format                                   : AAC
Format/Info                              : Advanced Audio Codec
Format profile                           : LC
Codec ID                                 : A_AAC-2
Duration                                 : 2 h 13 min
Bit rate                                 : 125 kb/s
Channel(s)                               : 2 channels
Channel positions                        : Front: L R
Sampling rate                            : 44.1 kHz
Frame rate                               : 43.066 FPS (1024 SPF)
Compression mode                         : Lossy
Stream size                              : 119 MiB (3%)
Title                                    : Dub [iTunes]
Language                                 : Ukrainian
Default                                  : No
Forced                                   : No

Audio #3
ID                                       : 4
Format                                   : AC-3
Format/Info                              : Audio Coding 3
Format settings, Endianness              : Big
Codec ID                                 : A_AC3
Duration                                 : 1 h 9 min
Bit rate mode                            : Constant
Bit rate                                 : 640 kb/s
Channel(s)                               : 6 channels
Channel positions                        : Front: L C R, Side: L R, LFE
Sampling rate                            : 48.0 kHz
Frame rate                               : 31.250 FPS (1536 SPF)
Bit depth                                : 16 bits
Compression mode                         : Lossy
Stream size                              : 320 MiB (8%)
Title                                    : Original
Language                                 : English
Service kind                             : Complete Main
Default                                  : No
Forced                                   : No

Text #1
ID                                       : 5
Format                                   : UTF-8
Codec ID                                 : S_TEXT/UTF8
Codec ID/Info                            : UTF-8 Plain Text
Duration                                 : 2 h 12 min
Bit rate                                 : 104 b/s
Count of elements                        : 1825
Stream size                              : 102 KiB (0%)
Title                                    : Full-length
Language                                 : Russian
Default                                  : No
Forced                                   : No

Text #2
ID                                       : 6
Format                                   : UTF-8
Codec ID                                 : S_TEXT/UTF8
Codec ID/Info                            : UTF-8 Plain Text
Duration                                 : 2 h 12 min
Bit rate                                 : 94 b/s
Count of elements                        : 1821
Stream size                              : 92.2 KiB (0%)
Title                                    : Full-length
Language                                 : Ukrainian
Default                                  : No
Forced                                   : No

Text #3
ID                                       : 7
Format                                   : UTF-8
Codec ID                                 : S_TEXT/UTF8
Codec ID/Info                            : UTF-8 Plain Text
Duration                                 : 2 h 12 min
Bit rate                                 : 67 b/s
Count of elements                        : 2066
Stream size                              : 65.8 KiB (0%)
Title                                    : Full-length
Language                                 : English
Default                                  : No
Forced                                   : No

Text #4
ID                                       : 8
Format                                   : UTF-8
Codec ID                                 : S_TEXT/UTF8
Codec ID/Info                            : UTF-8 Plain Text
Duration                                 : 2 h 9 min
Bit rate                                 : 0 b/s
Count of elements                        : 17
Stream size                              : 825 Bytes (0%)
Title                                    : Forced
Language                                 : Russian
Default                                  : Yes
Forced                                   : Yes

Menu
00:00:00.000                             : en:Stay Tuned
00:00:10.000                             : en:Studio Logos
00:00:46.000                             : en:Toomes loses a job and gains a new one
00:05:06.000                             : en:Marvel Logo
00:05:41.000                             : en:a Film by Peter Parker
00:10:04.000                             : en:Peter waits the school day out
00:14:42.000                             : en:Spider-Man keeps the neighborhood friendly
00:18:15.000                             : en:Spider-Man battles the Avengers
00:20:59.000                             : en:Peter finds a surprise at home
00:25:53.000                             : en:Ned asks for all the details
00:29:19.000                             : en:Peter debates bringing Spider-Man to the party
00:32:10.000                             : en:Spider-Man chases after a van
00:36:56.000                             : en:Tony instructs Peter to stand down
00:39:27.000                             : en:Toomes attempts to reason with his crew
00:42:33.000                             : en:Ned helps Peter with a shop project
00:46:12.000                             : en:Peter rejoins the team
00:50:22.000                             : en:Spider-Man makes a new friend while tracking bad guys
00:54:48.000                             : en:Spider-Man races back to his team
00:58:57.000                             : en:The Decathlon Team celebrates at the Washington Monument
01:05:18.000                             : en:Toomes contemplates his recent run of bad luck
01:06:23.000                             : en:The Decathlon team is welcomed back as heroes
01:08:48.000                             : en:Peter tries out interrogation mode
01:12:11.000                             : en:Spider-Man commutes on the ferry
01:19:51.000                             : en:Toomes calls for a bigger job
01:20:28.000                             : en:Perter faces the consequences of his mistake
01:23:43.000                             : en:Peter turns himself around
01:27:05.000                             : en:Peter meets Liz's family
01:29:50.000                             : en:Toomes gives Peter the Dad talk
01:34:21.000                             : en:Peter leaves the dance early
01:36:47.000                             : en:Ned gives Spider-Man directions
01:39:28.000                             : en:Spider-Man locates the Vulture's lair
01:42:33.000                             : en:Peter picks himself up
01:44:52.000                             : en:Vulture takes to the sky
01:50:34.000                             : en:Spider-Man and Vulture battle
01:54:39.000                             : en:Peter says a difficult goodbye
01:56:10.000                             : en:The Decathlon Team celebrates their win
01:58:02.000                             : en:Tony makes Peter an offer
02:02:26.000                             : en:Peter suits up
02:03:04.000                             : en:End Credits
02:05:13.000                             : en:Toomes encounters a former business partner
02:06:07.000                             : en:End Credits Continued
02:12:38.000                             : en:Patience
02:13:36.000                             : en:a Film by Peter Parker (Extended Director's Cut)
02:19:13.000                             : en:Deleted Scenes
02:25:20.000                             : en:Midtown Technical High School News
02:28:38.000                             : en:Mr. Harrington Lessons in Love
02:30:47.000                             : en:Aftermath
02:35:35.000                             : en:Searching for Spider-Man
02:43:34.000                             : en:Spidey Stunts
02:49:27.000                             : en:Jon Watts: Head of the Class




Скриншоты:
[+] Всего файлов в раздаче - 1:
Spider.Man.Homecoming.2017.iTunes.1080p_HEVCCLUB.mkv3.95 GB

Текущая раздача:
ДатаКомментарии    РазмерПиры
2017-10-08 U Человек-паук: Возвращение домой / Spider-Man: Homecoming (2017) BDRip-HEVC 1080p от HEVC CLUB | iTunes 3.95 GB ↑ 137 ↓ 75

Показать еще раздачи по запросу человек:
Вчера U Человек человеку волк / Dog Eat Dog (2016) BDRip 720p | iTunes 3.82 GB ↑ 61 ↓ 19
2017-11-29 U Человек человеку волк / Dog Eat Dog (2016) HDRip от MegaPeer | iTunes 745.57 MB ↑ 56 ↓ 21
2017-11-28 U Человек человеку волк / Dog Eat Dog (2016) BDRip от MegaPeer | iTunes 1.42 GB ↑ 230 ↓ 147
2017-11-28 U Человек человеку волк / Dog Eat Dog (2016) BDRip 1080p от ExKinoRay | iTunes 9.43 GB ↑ 165 ↓ 130
2017-11-22 U Человек человеку волк / Dog Eat Dog (2016) HDRip | L 1.46 GB ↑ 92 ↓ 88
2017-11-19 U Человек будущего / Future Man [01x01-06 из 13] (2017) WEBRip 1080p | NewStudio 7.05 GB ↑ 116 ↓ 63
2017-11-19 U Человек будущего / Future Man [S01] (2017) WEBRip 720p | BaibaKo 1К8.79 GB ↑ 167 ↓ 145

Отзывы
Зарегистрируйтесь чтобы добавить комментарий.
Обратная связь
Copyleft ©