↑↓Torrent.by
Поиск
Логин: Регистрация
Пароль: Восстановить пароль
Загрузка...

Человек-паук: Возвращение домой / Spider-Man: Homecoming (2017) BDRip-AVC от ExKinoRay | iTunes

Скачать chelovek-pauk-vozvraschenie-domoy-spider-man-homecoming-2017-bdrip-avc-ot-exkinoray-itunes.torrent
U Магнитная ссылка Размер: 745.76 MB Раздают: 62 Качают: 13 Добавлен: 2017-10-08 08:33:52
Человек-паук: Возвращение домой / Spider-Man: Homecoming (2017) BDRip-AVC от ExKinoRay | iTunes

Название: Человек-паук: Возвращение домой
Оригинальное название: Spider-Man: Homecoming
Год выхода: 2017
Жанр:  фантастика, боевик, приключения
Режиссер: Джон Уоттс
В ролях: Том Холланд, Роберт Дауни мл., Майкл Китон, Мариса Томей, Джон Фавро, Джейкоб Баталон, Зендея, Лора Хэрриер, Тони Револори, Дональд Гловер

О фильме :
После исторической встречи с командой Мстителей Питер Паркер возвращается домой, стараясь зажить обычной жизнью под опекой своей тёти Мэй. Но теперь за Питером приглядывает ещё кое-что… Тони Старк видел Человека-Паука в деле и должен стать его наставником. Когда новый злодей Стервятник угрожает уничтожить всё, что дорого Питеру, приходит время доказать всем, что такое настоящий супергерой.

Страна: США / Columbia Pictures, Marvel Studios Inc., Pascal Pictures
Продолжительность: 02:13:26
Перевод: Профессиональный (дублированный) | iTunes

Файл
Формат: MKV
Качество: BDRip-AVC (BDRemux 1080p)
Видео: MPEG-4 AVC, 736x308, ~ 695 Кбит/с
Аудио:  AAC-LC, 2 ch, ~84 Кбит/с
Субтитры: Русские (forced, full), английские

Релиз:


[+] MI
Общее
Уникальный идентификатор : 215757242418156584718393115002824474544 (0xA2515558FDDAD98A8D0D6DF9E6B2BFB0)
Полное имя : D:MOVIESSpider.Man.2017.BDRip-AVC.ExKinoRay.mkv
Формат : Matroska
Версия формата : Version 4 / Version 2
Размер файла : 746 Мбайт
Продолжительность : 2 ч. 13 м.
Общий поток : 781 Кбит/сек
Дата кодирования : UTC 2017-10-07 06:11:20
Программа кодирования : mkvmerge v15.0.0 ('Duel with the Devil') 64-bit
Библиотека кодирования : libebml v1.3.5 + libmatroska v1.4.5

Видео
Идентификатор : 1
Формат : AVC
Формат/Информация : Advanced Video Codec
Профиль формата : High@L4.1
Параметр CABAC формата : Да
Параметр RefFrames формата : 10 кадров
Идентификатор кодека : V_MPEG4/ISO/AVC
Продолжительность : 2 ч. 13 м.
Битрейт : 695 Кбит/сек
Ширина : 736 пикселей
Высота : 308 пикселей
Соотношение сторон : 2,40:1
Режим частоты кадров : Постоянный
Частота кадров : 23,976 (24000/1001) кадра/сек
Цветовое пространство : YUV
Субдискретизация насыщенности : 4:2:0
Битовая глубина : 8 бит
Тип развёртки : Прогрессивная
Бит/(Пиксели*Кадры) : 0.128
Размер потока : 663 Мбайт (89%)
Библиотека кодирования : x264 core 152 r2851kMod ba24899
Настройки программы : cabac=1 / ref=10 / deblock=1:-1:-1 / analyse=0x3:0x113 / me=umh / subme=11 / psy=1 / fade_compensate=0.00 / psy_rd=1.00:0.02 / mixed_ref=1 / me_range=32 / chroma_me=1 / trellis=2 / 8x8dct=1 / cqm=0 / deadzone=21,11 / fast_pskip=0 / chroma_qp_offset=-3 / threads=6 / lookahead_threads=1 / sliced_threads=0 / nr=0 / decimate=0 / interlaced=0 / bluray_compat=0 / constrained_intra=0 / bframes=10 / b_pyramid=2 / b_adapt=2 / b_bias=0 / direct=3 / weightb=1 / open_gop=0 / weightp=2 / keyint=240 / keyint_min=23 / scenecut=40 / intra_refresh=0 / rc_lookahead=40 / rc=2pass / mbtree=1 / bitrate=695 / ratetol=1.0 / qcomp=0.60 / qpmin=0 / qpmax=69 / qpstep=4 / cplxblur=20.0 / qblur=0.5 / vbv_maxrate=50000 / vbv_bufsize=62500 / nal_hrd=none / filler=0 / ip_ratio=1.40 / aq=3:1.00
Default : Да
Forced : Нет

Аудио
Идентификатор : 2
Формат : AAC
Формат/Информация : Advanced Audio Codec
Профиль формата : LC
Идентификатор кодека : A_AAC
Продолжительность : 2 ч. 13 м.
Битрейт : 84,0 Кбит/сек
Каналы : 2 канала
Расположение каналов : Front: L R
Частота : 48,0 КГц
Частота кадров : 46,875 кадров/сек (1024 SPF)
Метод сжатия : С потерями
Задержка видео : 9 мс.
Размер потока : 80,2 Мбайт (11%)
Default : Да
Forced : Нет

Текст #1
Идентификатор : 3
Формат : UTF-8
Идентификатор кодека : S_TEXT/UTF8
Идентификатор кодека/Информация : UTF-8 Plain Text
Продолжительность : 2 ч. 9 м.
Битрейт : 0 бит/сек
ElementCount : 17
Размер потока : 825 байт (0%)
Заголовок : Forced [iTunes]
Язык : Russian
Default : Да
Forced : Да

Текст #2
Идентификатор : 4
Формат : UTF-8
Идентификатор кодека : S_TEXT/UTF8
Идентификатор кодека/Информация : UTF-8 Plain Text
Продолжительность : 2 ч. 12 м.
Битрейт : 104 бит/сек
ElementCount : 1825
Размер потока : 102 Кбайт (0%)
Заголовок : Full [iTunes]
Язык : Russian
Default : Нет
Forced : Нет

Текст #3
Идентификатор : 5
Формат : UTF-8
Идентификатор кодека : S_TEXT/UTF8
Идентификатор кодека/Информация : UTF-8 Plain Text
Продолжительность : 5 с. 130 мс.
Битрейт : 79 бит/сек
ElementCount : 2
Размер потока : 51,0 байт (0%)
Заголовок : Forced [iTunes]
Язык : English
Default : Нет
Forced : Нет

Текст #4
Идентификатор : 6
Формат : UTF-8
Идентификатор кодека : S_TEXT/UTF8
Идентификатор кодека/Информация : UTF-8 Plain Text
Продолжительность : 2 ч. 12 м.
Битрейт : 64 бит/сек
ElementCount : 1790
Размер потока : 62,3 Кбайт (0%)
Заголовок : Full [iTunes]
Язык : English
Default : Нет
Forced : Нет

Меню
00:00:00.000 : en:Chapter 1
00:00:48.798 : en:Chapter 2
00:01:28.046 : en:Chapter 3
00:02:03.164 : en:Chapter 4
00:02:26.646 : en:Chapter 5
00:05:35.001 : en:Chapter 6
00:06:03.446 : en:Chapter 7
00:06:29.305 : en:Chapter 8
00:08:58.120 : en:Chapter 9
00:10:57.698 : en:Chapter 10
00:12:25.870 : en:Chapter 11
00:13:49.119 : en:Chapter 12
00:17:48.108 : en:Chapter 13
00:20:50.749 : en:Chapter 14
00:21:22.072 : en:Chapter 15
00:22:00.986 : en:Chapter 16
00:24:23.587 : en:Chapter 17
00:25:52.133 : en:Chapter 18
00:26:44.519 : en:Chapter 19
00:28:12.941 : en:Chapter 20
00:29:11.708 : en:Chapter 21
00:32:25.276 : en:Chapter 22
00:33:03.231 : en:Chapter 23
00:34:14.343 : en:Chapter 24
00:34:35.198 : en:Chapter 25
00:37:10.895 : en:Chapter 26
00:38:13.833 : en:Chapter 27
00:40:53.242 : en:Chapter 28
00:41:52.218 : en:Chapter 29
00:45:03.033 : en:Chapter 30
00:46:25.324 : en:Chapter 31
00:48:24.484 : en:Chapter 32
00:51:06.313 : en:Chapter 33
00:52:41.366 : en:Chapter 34
00:55:30.285 : en:Chapter 35
00:58:41.559 : en:Chapter 36
00:59:33.611 : en:Chapter 37
01:00:02.390 : en:Chapter 38
01:00:15.445 : en:Chapter 39
01:00:29.792 : en:Chapter 40
01:00:56.235 : en:Chapter 41
01:01:19.342 : en:Chapter 42
01:03:25.551 : en:Chapter 43
01:05:08.279 : en:Chapter 44
01:06:21.978 : en:Chapter 45
01:06:47.086 : en:Chapter 46
01:07:23.289 : en:Chapter 47
01:10:11.040 : en:Chapter 48
01:11:20.776 : en:Chapter 49
01:12:53.285 : en:Chapter 50
01:14:51.987 : en:Chapter 51
01:15:45.832 : en:Chapter 52
01:16:56.320 : en:Chapter 53
01:18:42.092 : en:Chapter 54
01:19:12.247 : en:Chapter 55
01:20:22.234 : en:Chapter 56
01:21:00.730 : en:Chapter 57
01:23:33.758 : en:Chapter 58
01:27:21.319 : en:Chapter 59
01:28:49.949 : en:Chapter 60
01:32:38.219 : en:Chapter 61
01:33:23.723 : en:Chapter 62
01:34:00.092 : en:Chapter 63
01:35:21.006 : en:Chapter 64
01:36:48.886 : en:Chapter 65
01:38:46.295 : en:Chapter 66
01:40:48.000 : en:Chapter 67
01:42:08.122 : en:Chapter 68
01:43:39.838 : en:Chapter 69
01:45:07.050 : en:Chapter 70
01:46:23.835 : en:Chapter 71
01:47:19.182 : en:Chapter 72
01:48:07.522 : en:Chapter 73
01:49:07.207 : en:Chapter 74
01:50:14.733 : en:Chapter 75
01:52:24.654 : en:Chapter 76
01:54:01.251 : en:Chapter 77
01:56:02.038 : en:Chapter 78
01:58:04.077 : en:Chapter 79
01:59:28.870 : en:Chapter 80
02:00:14.624 : en:Chapter 81
02:01:11.973 : en:Chapter 82
02:02:21.917 : en:Chapter 83



Скриншоты:
[+] Всего файлов в раздаче - 1:
Spider.Man.2017.BDRip-AVC.ExKinoRay.mkv745.76 MB

Текущая раздача:
ДатаКомментарии    РазмерПиры
2017-10-08 U Человек-паук: Возвращение домой / Spider-Man: Homecoming (2017) BDRip-AVC от ExKinoRay | iTunes 745.76 MB ↑ 62 ↓ 13

Показать ещё раздачи по запросу - человек:
2017-10-13 U Человек-паук: Возвращение домой / Spider-Man: Homecoming (2017) BDRip 720p от Scarabey | iTunes 4.83 GB ↑ 90 ↓ 43
2017-10-10 U Человек-паук: Возвращение домой / Spider-Man: Homecoming (2017) BDRip-AVC от New-Team | iTunes 1.49 GB ↑ 71 ↓ 30
2017-10-09 U Человек-паук: Возвращение домой / Spider-Man: Homecoming (2017) BDRip-AVC от New-Team | iTunes 2.25 GB ↑ 60 ↓ 28
2017-10-08 U Человек-паук: Возвращение домой / Spider-Man: Homecoming (2017) BDRip 1080p от Ash61 | 3D-Video | halfOU | iTunes 9.71 GB ↑ 193 ↓ 206
2017-10-08 U Человек-паук: Возвращение домой / Spider-Man: Homecoming (2017) BDRip-HEVC 1080p от HEVC CLUB | iTunes 3.95 GB ↑ 137 ↓ 71
2017-10-07 U Человек-паук: Возвращение домой / Spider-Man: Homecoming (2017) BDRip-AVC от OlLanDGroup | iTunes 2.56 GB ↑ 179 ↓ 89
2017-10-07 U Человек-паук: Возвращение домой / Spider-Man: Homecoming (2017) BDRip-AVC от ExKinoRay | iTunes 2.73 GB ↑ 108 ↓ 48

Отзывы
Зарегистрируйтесь чтобы добавить комментарий.
Обратная связь
Copyleft ©