↑↓Torrent.by
Поиск
Логин: Регистрация
Пароль: Восстановить пароль
Загрузка...

Безумцы / The Crazies (2010) HDRip-AVC от ExKinoRay | D

Скачать bezumcy-the-crazies-2010-hdrip-avc-ot-exkinoray-d.torrent
U Магнитная ссылка Размер: 746.59 MB Раздают: 87 Качают: 18 Добавлен: 2017-10-08 10:40:32
Безумцы / The Crazies (2010) HDRip-AVC от ExKinoRay | D

Название: Безумцы
Оригинальное название: The Crazies
Год выхода: 2010
Жанр:  Ужасы, триллер, детектив
Режиссер: Брек Эйснер
В ролях: Тимоти Олифант, Рада Митчел, Джо Андерсон, Даниэль Панабэйкер, Кристи Линн Смит, Бретт Рикаби, Престон Бэйли, Джон Эйлуорд, Джо Риган, Гленн Моршауэр

О фильме :
Однажды в размеренную тихую жизнь небольшого городка врывается настоящий хаос. Внезапно люди, которые знали друг друга много лет, буквально сходили с ума и проявляли небывалую агрессию. Никто не понимал причины таких изменений. Но оказалось, что всему виной опасный вирус, который был на борту потерпевшего неподалеку крушение самолета. Зараза распространялась с неимоверной скоростью. Город был взят в оцепление. Военные старались никого не выпускать из зоны карантина. Но что если зараженным удалось покинуть пределы города?

Страна: США, ОАЭ / Imagenation Abu Dhabi FZ, Overture Films, Participant Media, Penn Station, Road Rebel
Продолжительность: 01:40:45
Перевод: Профессиональный (полное дублирование)

Файл
Формат: MKV
Качество: HDRip-AVC
Видео: MPEG-4 AVC, 768x320, ~ 958 Кбит/с
Аудио:  AAC-LC, 2 ch, ~76 Кбит/с
Субтитры: Русские, английские

Релиз:


[+] MI
Общее
Уникальный идентификатор : 238126526366972459547868043064742489675 (0xB32580325A0CF99198CFD0A4CB43AE4B)
Полное имя : D:MOVIESBezumtzy.2010.ExKinoRay.mkv
Формат : Matroska
Версия формата : Version 4 / Version 2
Размер файла : 747 Мбайт
Продолжительность : 1 ч. 40 м.
Общий поток : 1036 Кбит/сек
Дата кодирования : UTC 2017-10-07 19:33:13
Программа кодирования : mkvmerge v15.0.0 ('Duel with the Devil') 64-bit
Библиотека кодирования : libebml v1.3.5 + libmatroska v1.4.5

Видео
Идентификатор : 1
Формат : AVC
Формат/Информация : Advanced Video Codec
Профиль формата : High@L4.1
Параметр CABAC формата : Да
Параметр RefFrames формата : 10 кадров
Идентификатор кодека : V_MPEG4/ISO/AVC
Продолжительность : 1 ч. 40 м.
Битрейт : 958 Кбит/сек
Ширина : 768 пикселей
Высота : 320 пикселей
Соотношение сторон : 2,40:1
Режим частоты кадров : Постоянный
Частота кадров : 23,976 (24000/1001) кадра/сек
Цветовое пространство : YUV
Субдискретизация насыщенности : 4:2:0
Битовая глубина : 8 бит
Тип развёртки : Прогрессивная
Бит/(Пиксели*Кадры) : 0.163
Размер потока : 690 Мбайт (92%)
Библиотека кодирования : x264 core 152 r2851 ba24899
Настройки программы : cabac=1 / ref=10 / deblock=1:-2:-2 / analyse=0x3:0x113 / me=umh / subme=11 / psy=1 / psy_rd=1.00:0.20 / mixed_ref=1 / me_range=32 / chroma_me=1 / trellis=2 / 8x8dct=1 / cqm=0 / deadzone=21,11 / fast_pskip=0 / chroma_qp_offset=-3 / threads=6 / lookahead_threads=1 / sliced_threads=0 / nr=0 / decimate=0 / interlaced=0 / bluray_compat=0 / constrained_intra=0 / bframes=10 / b_pyramid=2 / b_adapt=2 / b_bias=0 / direct=3 / weightb=1 / open_gop=0 / weightp=2 / keyint=240 / keyint_min=23 / scenecut=40 / intra_refresh=0 / rc_lookahead=40 / rc=2pass / mbtree=0 / bitrate=958 / ratetol=1.0 / qcomp=0.60 / qpmin=0 / qpmax=69 / qpstep=4 / cplxblur=20.0 / qblur=0.5 / vbv_maxrate=50000 / vbv_bufsize=62500 / nal_hrd=none / filler=0 / ip_ratio=1.40 / pb_ratio=1.30 / aq=1:1.00
Default : Да
Forced : Нет

Аудио
Идентификатор : 2
Формат : AAC
Формат/Информация : Advanced Audio Codec
Профиль формата : LC
Идентификатор кодека : A_AAC
Продолжительность : 1 ч. 40 м.
Битрейт : 76,0 Кбит/сек
Каналы : 2 канала
Расположение каналов : Front: L R
Частота : 48,0 КГц
Частота кадров : 46,875 кадров/сек (1024 SPF)
Метод сжатия : С потерями
Задержка видео : 9 мс.
Размер потока : 54,8 Мбайт (7%)
Default : Да
Forced : Нет

Текст #1
Идентификатор : 3
Формат : UTF-8
Идентификатор кодека : S_TEXT/UTF8
Идентификатор кодека/Информация : UTF-8 Plain Text
Продолжительность : 1 ч. 31 м.
Битрейт : 45 бит/сек
ElementCount : 787
Размер потока : 30,8 Кбайт (0%)
Заголовок : Субтитры
Язык : Russian
Default : Нет
Forced : Нет

Текст #2
Идентификатор : 4
Формат : UTF-8
Идентификатор кодека : S_TEXT/UTF8
Идентификатор кодека/Информация : UTF-8 Plain Text
Продолжительность : 1 ч. 35 м.
Битрейт : 48 бит/сек
ElementCount : 1219
Размер потока : 33,6 Кбайт (0%)
Заголовок : Субтитры
Язык : English
Default : Нет
Forced : Нет

Меню
00:00:00.000 : en:Death on the Diamond/Main Title
00:05:01.175 : en:"He's Not Right"
00:11:24.392 : en:Burning Down the House
00:17:18.287 : en:Codename: Trixie
00:28:02.472 : en:Containment Protocol
00:35:28.543 : en:Prisoners of Madness
00:42:34.551 : en:Hell Town
00:53:03.680 : en:No Place Like Home
01:00:07.812 : en:Drive-Thru Ambush
01:13:30.322 : en:"So Let It Mean Something"
01:16:27.165 : en:Last Exit For the Lost
01:33:04.996 : en:End Credits



Скриншоты:
[+] Всего файлов в раздаче - 1:
Bezumtzy.2010.ExKinoRay.mkv746.59 MB

Отзывы
Зарегистрируйтесь чтобы добавить комментарий.
Обратная связь
Copyleft ©