↑↓Torrent.by
Поиск
Логин: Регистрация
Пароль: Восстановить пароль
Загрузка...

Пресс-конференция Романа Лабусова (05.10.2017) WEBRip 1080p

Скачать press-konferenciya-romana-labusova-05-10-2017-webrip-1080p.torrent
U Магнитная ссылка Размер: 233.83 MB Раздают: 8 Качают: 0 Добавлен: 2017-10-08 15:22:44


Название: Пресс-конференция Романа Лабусова
Жанр: Информационная передача
Дата выпуска: 05.10.2017
Страна: Россия

Описание: Начальник подразделения шифровальной связи СБУ, подполковник Роман Лабусов перешел на сторону Донецкой Народной Республики. О мотивах своего поступка сотрудник украинских спецслужб рассказал 5 октября в ходе пресс-конференции в Донецке: «Один из моих мотивов – текст присяги, который гласит, что военнослужащий клянется перед гражданами Украины быть преданным и верным, действовать в их интересах...»
Журналисты ДНР и центральных российских телеканалов «ВГТРК», «НТВ», «Звезда» задали Лабусову прямые вопросы, в том числе и о сбитом боинге MH17 в 2014 году.

Качество: WEBRip 1080p
Видео: H.264, 1920x1080, ~1098 kbps, 25 fps, 0.02 bit/pixel
Аудио: AAC, 2 ch, 126 kbps, 44.1 kHz
Продолжительность: 00:26:39
Перевод: Не требуется

[+] MediaInfo


General
Unique ID                   : 234296022245799283807782559689225436556 (0xB043C5C32D120CE88DE8AE3AF1EE7D8C)
Complete name               : D:\Film\Пресс-конференция Романа Лабусова.mkv
Format                      : Matroska
Format version              : Version 4 / Version 2
File size                   : 234 MiB
Duration                    : 26 min 39 s
Overall bit rate            : 1 227 kb/s
Encoded date                : UTC 2017-10-08 06:41:54
Writing application         : mkvmerge v16.0.0 ('Protest') 64-bit
Writing library             : libebml v1.3.5 + libmatroska v1.4.8
Cover                       : Yes
Attachments                 : cover.png

Video
ID                          : 1
Format                      : AVC
Format/Info                 : Advanced Video Codec
Format profile              : High@L4
Format settings             : CABAC / 3 Ref Frames
Format settings, CABAC      : Yes
Format settings, RefFrames  : 3 frames
Codec ID                    : V_MPEG4/ISO/AVC
Duration                    : 26 min 39 s
Bit rate                    : 1 098 kb/s
Width                       : 1 920 pixels
Height                      : 1 080 pixels
Display aspect ratio        : 16:9
Frame rate mode             : Constant
Frame rate                  : 25.000 FPS
Color space                 : YUV
Chroma subsampling          : 4:2:0
Bit depth                   : 8 bits
Scan type                   : Progressive
Bits/(Pixel*Frame)          : 0.021
Stream size                 : 209 MiB (90%)
Language                    : Russian
Default                     : Yes
Forced                      : No
Color range                 : Limited
Color primaries             : BT.709
Transfer characteristics    : BT.709
Matrix coefficients         : BT.709

Audio
ID                          : 2
Format                      : AAC
Format/Info                 : Advanced Audio Codec
Format profile              : LC
Codec ID                    : A_AAC-2
Duration                    : 26 min 39 s
Bit rate                    : 126 kb/s
Channel(s)                  : 2 channels
Channel positions           : Front: L R
Sampling rate               : 44.1 kHz
Frame rate                  : 43.066 FPS (1024 SPF)
Compression mode            : Lossy
Stream size                 : 23.9 MiB (10%)
Language                    : Russian
Default                     : Yes
Forced                      : No


Скриншоты:

     

     

     
[+] Всего файлов в раздаче - 1:
Пресс-конференция Романа Лабусова.mkv233.83 MB

Текущая раздача:
ДатаКомментарии    РазмерПиры
2017-10-08 U Пресс-конференция Романа Лабусова (05.10.2017) WEBRip 1080p 233.83 MB ↑ 8 ↓ 0

Показать ещё раздачи по запросу - пресс:
2017-06-28 U Пресс-конференция Германа Стерлигова (2017) WEBRip-AVC 247.09 MB ↑ 49 ↓ 11
2015-11-23 U Артем Долгин - Как уменьшить объем талии и накачать пресс? (2015) PDF 28.73 MB ↑ 610 ↓ 1
2015-06-08 U Идеальный пресс за 30 дней. Ударная программа тренировок (2013) MP4 830.15 MB ↑ 1142 ↓ 13
2014-03-01 U Пресс-конференция Виктора Януковича [28.02] (2014) SATRip 939.03 MB ↑ 362 ↓ 85
2014-02-28 U Пресс-конференция заслуженного зэка Украины В. Януковича [28.02] (2014) SATRip 797.10 MB ↑ 88 ↓ 304
2013-12-23 U Пресс-конференция Михаила Ходорковского [22.12] (2013) WEBRip 753.17 MB ↑ 150 ↓ 61
2013-12-19 U Пресс-конференция Президента России В. В. Путина [Эфир от 19.12] (2013) IPTV 4К2.70 GB ↑ 206 ↓ 210

Отзывы
Зарегистрируйтесь чтобы добавить комментарий.
Обратная связь
Copyleft ©