↑↓Torrent.by
Поиск
Логин: Регистрация
Пароль: Восстановить пароль
Загрузка...

Авария / Breakdown (1997) WEB-DL 720p | P, P2, A

Скачать avariya-breakdown-1997-web-dl-720p-p-p2-a.torrent
U Магнитная ссылка Размер: 4.11 GB Раздают: 56 Качают: 25 Добавлен: 2017-10-08 18:28:31
Авария / Breakdown (1997) WEB-DL 720p | P, P2, A

Название: Авария
Оригинальное название: Breakdown
Год выхода: 1997
Жанр: боевик, триллер, драма, криминал, детектив
Режиссер: Джонатан Мостоу
В ролях: Курт Рассел, Дж.Т. Уолш, Кэтлин Куинлен, М. К. Гейни, Джек Ноузуорти, Рекс Линн, Рич Бринкли, Мойра Харрис, Ким Робиллард, Томас Копаче

О фильме: Джефф и Эми Тейлор решили переехать к новому месту жительства в Сан-Диего на дорогом джипе. По дороге Джефф чуть не врезался в пикап с двумя местными отморозками. А когда джип неожиданно заглох на обочине пустынной трассы, водитель попутного трейлера Рэд Барр предложил подвезти Эми до ближайшего телефона, а Джефф остался охранять машину.

С этого момента его жизнь превращается в кошмарный сон. В придорожном кафе, где он договорился встретиться с женой, Джефф не находит Эми. Оказывается, доморощенные бандиты решили взять за похищенную женщину выкуп. И тогда миролюбивый обыватель Джефф, вырвавшись из-под стволов вымогателей, сам превращается в безжалостного охотника…

Страна: США
Студия: Dino De Laurentiis Productions, Paramount Pictures, Spelling Films
Продолжительность: 01:33:27
Перевод: Профессиональный (двухголосый, закадровый) НТВ+ + Профессиональный (двухголосый, закадровый) Twister + Профессиональный (многоголосый, закадровый) CTC + Профессиональный (двухголосый, закадровый) TV1000 + Авторский (одноголосый, закадровый) А.Гаврилов + Авторский (одноголосый, закадровый) Ю.Живов + Профессиональный (многоголосый, закадровый) ICTV

Релиз:

Файл
Качество: WEB-DL 720p
Видео: 1280x544 at 23.976 fps, MPEG-4 AVC, ~3800 kbps avg
Аудио#1: Russian: 48 kHz, AC3, 3/2 (L,C,R,l,r) + LFE ch, ~448 kbps avg |Двухголосый закадровый, НТВ+|
Аудио#2: Russian: 48 kHz, AC3, 3/2 (L,C,R,l,r) + LFE ch, ~384 kbps avg |Двухголосый закадровый, Twister|
Аудио#3: Russian: 48 kHz, AC3, 2/0 (L,R) ch, ~192 kbps avg |Многоголосый закадровый, CTC|
Аудио#4: Russian: 48 kHz, AC3, 2/0 (L,R) ch, ~192 kbps avg |Двухголосый закадровый, TV1000|
Аудио#5: Russian: 48 kHz, AC3, 3/2 (L,C,R,l,r) + LFE ch, ~384 kbps avg |Авторский, А.Гаврилов|
Аудио#6: Russian: 48 kHz, AC3, 2/0 (L,R) ch, ~192 kbps avg |Авторский, Ю.Живов|
Аудио#7: Ukrainian: 48 kHz, AC3, 2/0 (L,R) ch, ~192 kbps avg |Многоголосый закадровый, ICTV|
Аудио#8: English: 48 kHz, AC3, 3/2 (L,C,R,l,r) + LFE ch, ~384 kbps avg
Субтитры: Russian, English

***Сохранены и подписаны оригинальные главы.


[+] Знаете ли вы, что...
Курта Рассела каждый день доставляли на съёмочную площадку и обратно вертолётом, чтобы он мог ночевать со своей семьёй в Лос-Анджелесе.
Часть карты, которую видят зрители вначале картины, изображает штат Нью-Мексико. Вместе с тем, все названия изменены, и упоминающихся в фильме населённых пунктов в США нет.
Идея фильма пришла в голову Мостоу, когда он ехал со своей женой по Неваде.



[+] MediaInfo
Общее
Уникальный идентификатор                 : 239478110127640913027338147020319460995 (0xB429CE6BC6476E54BFF9021B1C2B8E83)
Полное имя                               : Breakdown.1997.720p.WEB-DL.6xRus.Ukr.Eng.HDCLUB.mkv
Формат                                   : Matroska
Версия формата                           : Version 2
Размер файла                             : 4,11 Гбайт
Продолжительность                        : 1 ч. 33 м.
Общий поток                              : 6298 Кбит/сек
Дата кодирования                         : UTC 2014-04-19 12:27:56
Программа кодирования                    : mkvmerge v5.7.0 ('The Whirlwind') built on Jul  8 2012 20:08:51
Библиотека кодирования                   : libebml v1.2.3 + libmatroska v1.3.0

Видео
Идентификатор                            : 1
Формат                                   : AVC
Формат/Информация                        : Advanced Video Codec
Профиль формата                          : Main@L3.1
Параметр CABAC формата                   : Нет
Параметр ReFrames формата                : 2 кадра
Параметр GOP формата                     : N=1
Идентификатор кодека                     : V_MPEG4/ISO/AVC
Продолжительность                        : 1 ч. 33 м.
Битрейт                                  : 3804 Кбит/сек
Ширина                                   : 1280 пикселей
Высота                                   : 544 пикселя
Соотношение сторон                       : 2,35:1
Соотношение сторон в оригинале           : 2,35:1
Режим частоты кадров                     : Постоянный
Частота кадров                           : 23,976 кадра/сек
Цветовое пространство                    : YUV
Субдискретизация насыщенности            : 4:2:0
Битовая глубина                          : 8 бит
Тип развёртки                            : Прогрессивная
Бит/(Пиксели*Кадры)                      : 0.228
Размер потока                            : 2,48 Гбайт (60%)
Заголовок                                : WEB-DL 720p (iTunes US)
Язык                                     : English
Default                                  : Да
Forced                                   : Нет
Основные цвета                           : BT.709
Характеристики трансфера                 : BT.709
Коэффициенты матрицы                     : BT.709

Аудио #1
Идентификатор                            : 2
Формат                                   : AC-3
Формат/Информация                        : Audio Coding 3
Расширение режима                        : CM (complete main)
Параметр Endianness формата              : Big
Идентификатор кодека                     : A_AC3
Продолжительность                        : 1 ч. 33 м.
Вид битрейта                             : Постоянный
Битрейт                                  : 448 Кбит/сек
Каналы                                   : 6 каналов
Расположение каналов                     : Front: L C R, Side: L R, LFE
Частота                                  : 48,0 КГц
Битовая глубина                          : 16 бит
Метод сжатия                             : С потерями
Размер потока                            : 299 Мбайт (7%)
Заголовок                                : AC3 5.1 448Kbps | Профессиональный двухголосый, НТВ+ |
Язык                                     : Russian
Default                                  : Да
Forced                                   : Нет

Аудио #2
Идентификатор                            : 3
Формат                                   : AC-3
Формат/Информация                        : Audio Coding 3
Расширение режима                        : CM (complete main)
Параметр Endianness формата              : Big
Идентификатор кодека                     : A_AC3
Продолжительность                        : 1 ч. 33 м.
Вид битрейта                             : Постоянный
Битрейт                                  : 384 Кбит/сек
Каналы                                   : 6 каналов
Расположение каналов                     : Front: L C R, Side: L R, LFE
Частота                                  : 48,0 КГц
Битовая глубина                          : 16 бит
Метод сжатия                             : С потерями
Размер потока                            : 257 Мбайт (6%)
Заголовок                                : AC3 5.1 384Kbps | Профессиональный двухголосый, Twister |
Язык                                     : Russian
Default                                  : Нет
Forced                                   : Нет

Аудио #3
Идентификатор                            : 4
Формат                                   : AC-3
Формат/Информация                        : Audio Coding 3
Расширение режима                        : CM (complete main)
Параметр Endianness формата              : Big
Идентификатор кодека                     : A_AC3
Продолжительность                        : 1 ч. 33 м.
Вид битрейта                             : Постоянный
Битрейт                                  : 192 Кбит/сек
Каналы                                   : 2 канала
Расположение каналов                     : Front: L R
Частота                                  : 48,0 КГц
Битовая глубина                          : 16 бит
Метод сжатия                             : С потерями
Размер потока                            : 128 Мбайт (3%)
Заголовок                                : AC3 2.0 192Kbps | Профессиональный многоголосый, СТС |
Язык                                     : Russian
Default                                  : Нет
Forced                                   : Нет

Аудио #4
Идентификатор                            : 5
Формат                                   : AC-3
Формат/Информация                        : Audio Coding 3
Расширение режима                        : CM (complete main)
Параметр Endianness формата              : Big
Идентификатор кодека                     : A_AC3
Продолжительность                        : 1 ч. 33 м.
Вид битрейта                             : Постоянный
Битрейт                                  : 192 Кбит/сек
Каналы                                   : 2 канала
Расположение каналов                     : Front: L R
Частота                                  : 48,0 КГц
Битовая глубина                          : 16 бит
Метод сжатия                             : С потерями
Размер потока                            : 128 Мбайт (3%)
Заголовок                                : AC3 2.0 192Kbps | Профессиональный двухголосый, TV1000 |
Язык                                     : Russian
Default                                  : Нет
Forced                                   : Нет

Аудио #5
Идентификатор                            : 6
Формат                                   : AC-3
Формат/Информация                        : Audio Coding 3
Расширение режима                        : CM (complete main)
Параметр Endianness формата              : Big
Идентификатор кодека                     : A_AC3
Продолжительность                        : 1 ч. 33 м.
Вид битрейта                             : Постоянный
Битрейт                                  : 384 Кбит/сек
Каналы                                   : 6 каналов
Расположение каналов                     : Front: L C R, Side: L R, LFE
Частота                                  : 48,0 КГц
Битовая глубина                          : 16 бит
Метод сжатия                             : С потерями
Размер потока                            : 257 Мбайт (6%)
Заголовок                                : AC3 5.1 384Kbps | Авторский одноголосый, А.Гаврилов |
Язык                                     : Russian
Default                                  : Нет
Forced                                   : Нет

Аудио #6
Идентификатор                            : 7
Формат                                   : AC-3
Формат/Информация                        : Audio Coding 3
Расширение режима                        : CM (complete main)
Параметр Endianness формата              : Big
Идентификатор кодека                     : A_AC3
Продолжительность                        : 1 ч. 33 м.
Вид битрейта                             : Постоянный
Битрейт                                  : 192 Кбит/сек
Каналы                                   : 2 канала
Расположение каналов                     : Front: L R
Частота                                  : 48,0 КГц
Битовая глубина                          : 16 бит
Метод сжатия                             : С потерями
Размер потока                            : 128 Мбайт (3%)
Заголовок                                : AC3 2.0 192Kbps | Авторский одноголосый, Ю.Живов |
Язык                                     : Russian
Default                                  : Нет
Forced                                   : Нет

Аудио #7
Идентификатор                            : 8
Формат                                   : AC-3
Формат/Информация                        : Audio Coding 3
Расширение режима                        : CM (complete main)
Параметр Endianness формата              : Big
Идентификатор кодека                     : A_AC3
Продолжительность                        : 1 ч. 33 м.
Вид битрейта                             : Постоянный
Битрейт                                  : 192 Кбит/сек
Каналы                                   : 2 канала
Расположение каналов                     : Front: L R
Частота                                  : 48,0 КГц
Битовая глубина                          : 16 бит
Метод сжатия                             : С потерями
Размер потока                            : 128 Мбайт (3%)
Заголовок                                : AC3 2.0 192Kbps | Профессиональный многоголосый, ICTV |
Язык                                     : Ukrainian
Default                                  : Нет
Forced                                   : Нет

Аудио #8
Идентификатор                            : 9
Формат                                   : AC-3
Формат/Информация                        : Audio Coding 3
Расширение режима                        : CM (complete main)
Параметр Endianness формата              : Big
Идентификатор кодека                     : A_AC3
Продолжительность                        : 1 ч. 33 м.
Вид битрейта                             : Постоянный
Битрейт                                  : 384 Кбит/сек
Каналы                                   : 6 каналов
Расположение каналов                     : Front: L C R, Side: L R, LFE
Частота                                  : 48,0 КГц
Битовая глубина                          : 16 бит
Метод сжатия                             : С потерями
Размер потока                            : 257 Мбайт (6%)
Заголовок                                : AC3 5.1 384Kbps | Original, iTunes US |
Язык                                     : English
Default                                  : Нет
Forced                                   : Нет

Текст #1
Идентификатор                            : 10
Формат                                   : UTF-8
Идентификатор кодека                     : S_TEXT/UTF8
Идентификатор кодека/Информация          : UTF-8 Plain Text
Заголовок                                : Full.
Язык                                     : Russian
Default                                  : Нет
Forced                                   : Нет

Текст #2
Идентификатор                            : 11
Формат                                   : UTF-8
Идентификатор кодека                     : S_TEXT/UTF8
Идентификатор кодека/Информация          : UTF-8 Plain Text
Заголовок                                : Full.
Язык                                     : English
Default                                  : Нет
Forced                                   : Нет

Меню
00:00:00.000                             : en:Opening Credits
00:02:45.000                             : en:A Near Miss
00:03:47.000                             : en:Last Chance For Gas
00:07:35.000                             : en:Breakdown
00:10:30.000                             : en:Hitching A Ride
00:13:54.000                             : en:Fixing The Problem
00:15:05.000                             : en:Belle's Diner
00:18:06.000                             : en:Mistaken Identity
00:20:50.000                             : en:No Visible Evidence
00:27:16.000                             : en:Missing Persons
00:28:42.000                             : en:Back At Belle's
00:31:24.000                             : en:Billy Knows
00:33:19.000                             : en:In Close Pursuit
00:35:58.000                             : en:Down River
00:39:38.000                             : en:The Exact Dollar Amount
00:44:24.000                             : en:Downtown Brackett
00:51:12.000                             : en:Turning The Tables
00:57:09.000                             : en:Officer Down
01:00:08.000                             : en:Texaco Truckstop
01:02:08.000                             : en:Stowaway
01:05:26.000                             : en:Home Early
01:08:54.000                             : en:Unloading Truck
01:12:46.000                             : en:Armed And Dangerous
01:13:57.000                             : en:Den Of Thieves
01:17:09.000                             : en:Getting Free
01:19:31.000                             : en:Run For It
01:21:22.000                             : en:Drive For Your Life
01:23:09.000                             : en:The Bridge
01:24:57.000                             : en:Over The Edge
01:27:39.000                             : en:Revenge
01:29:28.000                             : en:End Credits



Скриншоты:
[+] Всего файлов в раздаче - 1:
Breakdown.1997.720p.WEB-DL.6xRus.Ukr.Eng.HDCLUB.mkv4.11 GB

Текущая раздача:
ДатаКомментарии    РазмерПиры
2017-10-08 U Авария / Breakdown (1997) WEB-DL 720p | P, P2, A 1 К 4.11 GB ↑ 56 ↓ 25

Похожие раздачи по запросу - авария:
2013-11-15 U Дискотека Авария - Дискография [6 Альбомов, 4 Сингла, 4 Сборника] (1999-2011) FLAC 3К5.46 GB ↑ 111 ↓ 5

Отзывы
Dead can dance
офигенный фильм, я еще на видеомагнитофоне смотрел, триллер - жесть)))

Зарегистрируйтесь чтобы добавить комментарий.
Обратная связь
Copyleft ©