↑↓Torrent.by
Поиск
Логин: Регистрация
Пароль: Восстановить пароль
Загрузка...

Любовь – болезнь / The Big Sick (2017) BDRip 720p | L

Скачать lyubov-bolezn-the-big-sick-2017-bdrip-720p-l.torrent
U Магнитная ссылка Размер: 3.62 GB Раздают: 115 Качают: 29 Добавлен: 2017-10-09 09:00:25
Любовь – болезнь / The Big Sick (2017) BDRip 720p | L

Наименование: Любовь – болезнь
Оригинальное наименование: The Big Sick
Произведено: США
Категория: мелодрама, комедия
Режиссер постановщик: Майкл Шоуолтер
В главных ролях: Холли Хантер, Зои Казан, Кумэйл Нанджиани, Мэттью Кардаропле, Велла Ловелл, Рэй Романо, Адиль Ахтар, Бо Бёрнэм, Дэвид Алан Грир, Анупам Кхер

О фильме:
По мере развития отношений влюбленной паре приходится столкнуться со своими культурными различиями.

Файл
Качество: BDRip 720p
Видео данные: MKV, 1280x688 (1.85:1), 23.976  fps,  4000 Кбит/с
Аудио данные: Русский (MP3, 2 ch, 320 Кбит/с)
Перевод: Любительский многоголосый (GreenРай Studio)
Продолжительность: 02:00:46

ВНИМАНИЕ! Присутствует реклама!

Релиз:


[+] Mediainfo
General
Unique ID                   : 236489389138444413421215903308307089085 (0xB1EA33197465C795BFB4735A390DC6BD)
Complete name               : D:Рабочий столThe.Big.Sick.2017.P.BDRip.720p.mkv
Format                      : Matroska
Format version              : Version 4 / Version 2
File size                   : 3.62 GiB
Duration                    : 2 h 0 min
Overall bit rate mode       : Constant
Overall bit rate            : 4 285 kb/s
Movie name                  : My.Cousin.Rachel.2017  - TorpedoUK
Encoded date                : UTC 2017-10-06 13:13:37
Writing application         : mkvmerge v8.3.0 ('Over the Horizon') 64bit
Writing library             : libebml v1.3.1 + libmatroska v1.4.2

Video
ID                          : 1
Format                      : AVC
Format/Info                 : Advanced Video Codec
Format profile              : Main@L3.1
Format settings, CABAC      : Yes
Format settings, ReFrames   : 3 frames
Format settings, GOP        : M=4, N=15
Codec ID                    : V_MPEG4/ISO/AVC
Duration                    : 2 h 0 min
Bit rate mode               : Constant
Bit rate                    : 4 000 kb/s
Width                       : 1 280 pixels
Height                      : 688 pixels
Display aspect ratio        : 1.85:1
Frame rate mode             : Constant
Frame rate                  : 23.976 (23976/1000) FPS
Standard                    : NTSC
Color space                 : YUV
Chroma subsampling          : 4:2:0
Bit depth                   : 8 bits
Scan type                   : Progressive
Bits/(Pixel*Frame)          : 0.189
Stream size                 : 3.35 GiB (92%)
Language                    : English
Default                     : Yes
Forced                      : No
Color range                 : Limited

Audio
ID                          : 2
Format                      : MPEG Audio
Format version              : Version 1
Format profile              : Layer 3
Mode                        : Joint stereo
Codec ID                    : A_MPEG/L3
Codec ID/Hint               : MP3
Duration                    : 2 h 0 min
Bit rate mode               : Constant
Bit rate                    : 320 kb/s
Channel(s)                  : 2 channels
Sampling rate               : 48.0 kHz
Frame rate                  : 41.667 FPS (1152 spf)
Compression mode            : Lossy
Stream size                 : 277 MiB (7%)
Default                     : Yes
Forced                      : No



Скриншоты:
[+] Всего файлов в раздаче - 1:
The.Big.Sick.2017.P.BDRip.720p.mkv3.62 GB

Текущая раздача:
ДатаКомментарии    РазмерПиры
2017-10-09 U Любовь – болезнь / The Big Sick (2017) BDRip 720p | L 3.62 GB ↑ 115 ↓ 29

Показать еще раздачи по запросу любовь:
2017-12-11 U Следствие вели... с Леонидом Каневским. Любовь и голуби. Подлинная история [эфир от 10.12] (2017) WEBRip 1080p от MediaClub 1.75 GB ↑ 42 ↓ 4
2017-12-10 U Следствие вели... с Леонидом Каневским. (Любовь и голуби. Подлинная история) [10.12] (2017) HDTVRip от GeneralFim 500.07 MB ↑ 129 ↓ 27
2017-11-27 U Алексей Брянцев и Елена Касьянова - Любовь на двоих (2017) MP3 61.46 MB ↑ 154 ↓ 40
2017-11-17 U Секс, любовь и математика / C'est la tangente que je préfère (1997) DVDRip-AVC | A 1.46 GB ↑ 65 ↓ 21
2017-11-08 U Взрослая любовь / Vita coi figli (1990) DVDRip | P2 1.46 GB ↑ 65 ↓ 23
2017-10-28 U Любовь на выживание [01-02 из 02] (2017) WEB-DLRip-AVC от Files-x 1.10 GB ↑ 120 ↓ 44
2017-10-28 U Левина Любовь - Букварь ЖКХ для ржавых чайников (2017) FB2 14.23 MB ↑ 109 ↓ 16

Отзывы
Зарегистрируйтесь чтобы добавить комментарий.
Обратная связь
Copyleft ©