↑↓Torrent.by
Поиск
Логин: Регистрация
Пароль: Восстановить пароль
Загрузка...

Маленькое зло / Little Evil (2017) WEBRip 720p | L

Скачать malenkoe-zlo-little-evil-2017-webrip-720p-l.torrent
U Магнитная ссылка Размер: 2.79 GB Раздают: 86 Качают: 51 Добавлен: 2017-10-09 09:00:40
Маленькое зло / Little Evil (2017) WEBRip 720p | L

Наименование: Маленькое зло
Оригинальное наименование: Little Evil
Произведено: США
Категория: комедия, ужасы
Режиссер постановщик: Илай Крэйг
В главных ролях: Адам Скотт, Эванджелин Лилли, Оуэн Атлас, Бриджет Эверетт, Клэнси Браун, Тайлер Лабин, Дональд Фэйсон, Крис Д Елия, Кайл Борнхаймер, Ким Эванс

О фильме:
Гари женится на женщине своей мечты — красавице Саманте. Она тоже считает любимого идеальным мужем и потенциальным отцом для пятилетнего сына Лукаса. Только вот сам мальчик так не считает. Он не разговаривает с отчимом и вообще ведёт себя странно — смотрит волком, не дружит с другими детьми, и вокруг него постоянно происходят несчастные случаи. Гари даже пошёл на коллективную терапию, где отчимы делятся своими проблемами и жалуются на маленьких дьяволят, но проблема Гари куда серьёзней: его пасынок — сам Антихрист.

Файл
Качество: WEBRip 720p
Видео данные: MKV, 1280x536 (2.40:1), 23.976  fps,  4000 Кбит/с
Аудио данные: Русский (MP3, 2 ch, 320 Кбит/с)
Перевод: Любительский многоголосый (GreenРай Studio)
Продолжительность: 01:35:50

ВНИМАНИЕ! Присутствует реклама!

Релиз:


[+] Mediainfo
General
Unique ID                   : 208213373687810426049960849220515298384 (0x9CA46FE724CF7BABA280F0E139EA7C50)
Complete name               : D:Рабочий столLittle.Evil.2017.P.WEB-DL.720p.mkv
Format                      : Matroska
Format version              : Version 4 / Version 2
File size                   : 2.79 GiB
Duration                    : 1 h 35 min
Overall bit rate mode       : Constant
Overall bit rate            : 4 189 kb/s
Encoded date                : UTC 2017-10-08 16:34:00
Writing application         : mkvmerge v8.3.0 ('Over the Horizon') 64bit
Writing library             : libebml v1.3.1 + libmatroska v1.4.2

Video
ID                          : 1
Format                      : AVC
Format/Info                 : Advanced Video Codec
Format profile              : Main@L3.1
Format settings, CABAC      : Yes
Format settings, ReFrames   : 3 frames
Codec ID                    : V_MPEG4/ISO/AVC
Duration                    : 1 h 35 min
Bit rate mode               : Constant
Bit rate                    : 4 000 kb/s
Width                       : 1 280 pixels
Height                      : 536 pixels
Display aspect ratio        : 2.40:1
Frame rate mode             : Constant
Frame rate                  : 23.976 (23976/1000) FPS
Standard                    : NTSC
Color space                 : YUV
Chroma subsampling          : 4:2:0
Bit depth                   : 8 bits
Scan type                   : Progressive
Bits/(Pixel*Frame)          : 0.243
Stream size                 : 2.58 GiB (92%)
Language                    : English
Default                     : Yes
Forced                      : No
Color range                 : Limited

Audio
ID                          : 2
Format                      : MPEG Audio
Format version              : Version 1
Format profile              : Layer 3
Mode                        : Joint stereo
Codec ID                    : A_MPEG/L3
Codec ID/Hint               : MP3
Duration                    : 1 h 35 min
Bit rate mode               : Constant
Bit rate                    : 320 kb/s
Channel(s)                  : 2 channels
Sampling rate               : 48.0 kHz
Frame rate                  : 41.667 FPS (1152 spf)
Compression mode            : Lossy
Stream size                 : 218 MiB (8%)
Default                     : Yes
Forced                      : No



Скриншоты:
[+] Всего файлов в раздаче - 1:
Little.Evil.2017.P.WEB-DL.720p.mkv2.79 GB

Текущая раздача:
ДатаКомментарии    РазмерПиры
2017-10-09 U Маленькое зло / Little Evil (2017) WEBRip 720p | L 2.79 GB ↑ 86 ↓ 51

Похожие раздачи по запросу - маленькое:
2017-10-09 U Маленькое зло / Little Evil (2017) WEBRip | L 1.36 GB ↑ 68 ↓ 75

Отзывы
Зарегистрируйтесь чтобы добавить комментарий.
Обратная связь
Copyleft ©