↑↓Torrent.by
Поиск
Логин: Регистрация
Пароль: Восстановить пароль
Загрузка...

Сверхлюди / Inhumans [01x01-03 из 08] (2017) WEB-DLRip | D

Скачать sverhlyudi-inhumans-01x01-03-iz-08-2017-web-dlrip-d.torrent
U Магнитная ссылка Размер: 1.76 GB Раздают: 39 Качают: 44 Добавлен: 2017-10-09 09:01:05
Сверхлюди / Inhumans [01x01-03 из 08] (2017) WEB-DLRip | D

Название: Сверхлюди
Оригинальное название: Inhumans
Год выхода: 2017
Жанр: Фантастика, боевик, приключения
Режиссер: Роэль Рейн, Крис Фишер, Билл Джирхарт
В ролях: Соня Балморес, Изабель Корниш, Эме Иквуакор, Кен Люн, Майк Мо, Энсон Маунт, Иван Реон, Серинда Свон, Эллен Воглом, Генри Иэн Кьюсик

О фильме:
История Королевской семьи, принадлежащей к расе Сверхлюдей. Вследствие военного переворота члены королевской фамилии под предводительством Чёрного Грома вынуждены покинуть свой дом в лунном городе Аттилан и бежать на острова, как в дальнейшем оказывается — Гавайи, где им предстоит спасать не только себя, но и весь мир от гибели.

 
Страна: США
Студия: Marvel Television, Walt Disney Television
Продолжительность: 3 x ~ 00:45:00
Перевод: Дублированный (Невафильм)

Файл
Кодек: XviD
Качество: WEB-DL 400p
Видео: XviD, ~ 1700 Кбит/с, 720x400
Звук: Русский (AC3, 2 ch, 192 Кбит/с)


[+] MI
General
Complete name                            : /Inhumans.S01E01.DUB.avi
Format                                   : AVI
Format/Info                              : Audio Video Interleave
File size                                : 601 MiB
Duration                                 : 42mn 29s
Overall bit rate                         : 1 979 Kbps
Writing application                      : VirtualDubMod 1.5.10.2 (build 2540/release)
Writing library                          : VirtualDubMod build 2540/release

Video
ID                                       : 0
Format                                   : MPEG-4 Visual
Format profile                           : Advanced Simple@L5
Format settings, BVOP                    : 1
Format settings, QPel                    : No
Format settings, GMC                     : No warppoints
Format settings, Matrix                  : Default (MPEG)
Codec ID                                 : XVID
Codec ID/Hint                            : XviD
Duration                                 : 42mn 29s
Bit rate                                 : 1 581 Kbps
Width                                    : 720 pixels
Height                                   : 400 pixels
Display aspect ratio                     : 16:9
Frame rate                               : 23.976 fps
Color space                              : YUV
Chroma subsampling                       : 4:2:0
Bit depth                                : 8 bits
Scan type                                : Progressive
Compression mode                         : Lossy
Bits/(Pixel*Frame)                       : 0.229
Stream size                              : 480 MiB (80%)
Writing library                          : XviD 1.2.1 (UTC 2008-12-04)

Audio #1
ID                                       : 1
Format                                   : AC-3
Format/Info                              : Audio Coding 3
Mode extension                           : CM (complete main)
Format settings, Endianness              : Big
Codec ID                                 : 2000
Duration                                 : 42mn 29s
Bit rate mode                            : Constant
Bit rate                                 : 192 Kbps
Channel(s)                               : 2 channels
Channel positions                        : Front: L R
Sampling rate                            : 48.0 KHz
Bit depth                                : 16 bits
Compression mode                         : Lossy
Stream size                              : 58.3 MiB (10%)
Alignment                                : Split accross interleaves
Interleave, duration                     : 42 ms (1.00 video frame)
Interleave, preload duration             : 500 ms

Audio #2
ID                                       : 2
Format                                   : AC-3
Format/Info                              : Audio Coding 3
Mode extension                           : CM (complete main)
Format settings, Endianness              : Big
Codec ID                                 : 2000
Duration                                 : 42mn 29s
Bit rate mode                            : Constant
Bit rate                                 : 192 Kbps
Channel(s)                               : 2 channels
Channel positions                        : Front: L R
Sampling rate                            : 48.0 KHz
Bit depth                                : 16 bits
Compression mode                         : Lossy
Stream size                              : 58.3 MiB (10%)
Alignment                                : Split accross interleaves
Interleave, duration                     : 42 ms (1.00 video frame)
Interleave, preload duration             : 500 ms




Скриншоты:
[+] Всего файлов в раздаче - 3:
Inhumans.S01E02.DUB.avi601.53 MB
Inhumans.S01E01.DUB.avi601.42 MB
Inhumans.S01E03.DUB.avi601.40 MB

Текущая раздача:
ДатаКомментарии    РазмерПиры
2017-10-09 U Сверхлюди / Inhumans [01x01-03 из 08] (2017) WEB-DLRip | D 1.76 GB ↑ 39 ↓ 44

Показать ещё раздачи по запросу - сверхлюди:
Вчера U Сверхлюди / Inhumans [01x01-05 из 08] (2017) WEB-DLRip | D 2.94 GB ↑ 39 ↓ 76
2017-10-21 U Сверхлюди / Inhumans [01х01-05 из 08] (2017) HDTVRip 720p | Sunshine Studio 4.60 GB ↑ 96 ↓ 516
2017-10-16 U Сверхлюди / Нелюди / Inhumans [01x01-04 из 08] (2017) WEB-DLRip от GeneralFilm | LostFilm 2.01 GB ↑ 31 ↓ 57
2017-10-14 U Сверхлюди / Inhumans [01x01-04 из 08] (2017) WEB-DLRip | D 2.35 GB ↑ 59 ↓ 219
2017-10-09 U Сверхлюди / Нелюди / Inhumans [01x01-03 из 08] (2017) WEB-DL 720р от GeneralFilm | LostFilm 4.28 GB ↑ 52 ↓ 42
2017-10-09 U Сверхлюди / Нелюди / Inhumans [01x01-03 из 08] (2017) WEB-DLRip от GeneralFilm | LostFilm 1.51 GB ↑ 53 ↓ 49
2017-10-08 U Сверхлюди / Inhumans [01х01-03 из 08] (2017) HDTVRip 720p | Sunshine Studio 2.73 GB ↑ 132 ↓ 350

Отзывы
Зарегистрируйтесь чтобы добавить комментарий.
Обратная связь
Copyleft ©