↑↓torrent.by
Поиск
Логин: Регистрация
Пароль: Восстановить пароль

Тайная любовница / Une vieille maitresse (2007) WEB-DL 720p | P

Скачать taynaya-lyubovnica-une-vieille-maitresse-2007-web-dl-720p-p.torrent
U Магнитная ссылка Размер: 3.34 GB Раздают: 298 Качают: 65 Добавлен: 2017-10-09 13:51:27
Тайная любовница / Une vieille maitresse (2007) WEB-DL 720p | P

Название: Тайная любовница
Оригинальное название: Une vieille maitresse
Год выхода: 2007
Жанр: драма, мелодрама
Режиссер: Катрин Брейя
В ролях: Азия Ардженто, Анн Парийо, Фу'ад Аи Атту, Амира Казар, Лио, Мишель Лонсдаль, Роксана Мескида, Йоланда Моро, Сара Прэтт, Клод Саррот, Жан-Филипп Тесс

Слоган:   «Опасные связи по-французски»

О фильме:  Когда кончается любовь мужчины? После проведенной вместе ночи? После первой измены? После 10 лет совместной жизни? Или она может закончится только вместе с жизнью, и не важно, сколько было ссор и измен, расставаний и примирений.
Маркиза Флер решает выдать свою внучку, жемчужину знатного аристократического рода, за дворянина Рино де Мариньи. Тот искренне влюблен в прелестное создание, но вместе с тем не пропускает ни одной красивой юбки.
Маркиза узнает тайну Рино: этот неисправимый донжуан является тайным любовником и жертвой скандальной куртизанки, дочери герцогини и тореадора. Удастся ли разуму Рино одержать победу над его страстями? Сохранит ли Мариньи верность невесте?


Страна: Франция, Италия /  Flach Film, CB Films, France 3 Cinéma
Продолжительность: 01:49:38
Перевод: Профессиональный (многоголосый, закадровый)

Файл
Качество: WEB-DL 720p
Формат: MKV
Видео:  MPEG-4 AVC, 3470 Кбит/сек, 1280x688
Звук: Русский / Французский: AC3, 6 ch, 448 Кбит/сек
Субтитры: русские, английские

Релиз:
[+] MediaInfo:
Версия формата                           : Version 4 / Version 2
Размер файла                             : 3,34 Гбайт
Продолжительность                        : 1 ч. 49 м.
Общий поток                              : 4368 Кбит/сек
Дата кодирования                         : UTC 2017-10-09 00:18:46
Программа кодирования                    : mkvmerge v15.0.0 ('Duel with the Devil') 64-bit
Библиотека кодирования                   : libebml v1.3.5 + libmatroska v1.4.5

Видео
Идентификатор                            : 1
Формат                                   : AVC
Формат/Информация                        : Advanced Video Codec
Профиль формата                          : Main@L4.1
Параметр CABAC формата                   : Да
Параметр ReFrames формата                : 8 кадров
Идентификатор кодека                     : V_MPEG4/ISO/AVC
Продолжительность                        : 1 ч. 49 м.
Битрейт                                  : 3470 Кбит/сек
Ширина                                   : 1280 пикселей
Высота                                   : 688 пикселей
Соотношение сторон                       : 1,85:1
Режим частоты кадров                     : Постоянный
Частота кадров                           : 25,000 кадров/сек
Цветовое пространство                    : YUV
Субдискретизация насыщенности            : 4:2:0
Битовая глубина                          : 8 бит
Тип развёртки                            : Прогрессивная
Бит/(Пиксели*Кадры)                      : 0.158
Размер потока                            : 2,66 Гбайт (79%)
Язык                                     : French
Default                                  : Да
Forced                                   : Нет

Аудио #1
Идентификатор                            : 2
Формат                                   : AC-3
Формат/Информация                        : Audio Coding 3
Расширение режима                        : CM (complete main)
Параметр Endianness формата              : Big
Идентификатор кодека                     : A_AC3
Продолжительность                        : 1 ч. 49 м.
Вид битрейта                             : Постоянный
Битрейт                                  : 448 Кбит/сек
Каналы                                   : 6 каналов
Расположение каналов                     : Front: L C R, Side: L R, LFE
Частота                                  : 48,0 КГц
Частота кадров                           : 31,250 кадров/сек (1536 spf)
Битовая глубина                          : 16 бит
Метод сжатия                             : С потерями
Размер потока                            : 351 Мбайт (10%)
Язык                                     : Russian
Default                                  : Да
Forced                                   : Нет

Аудио #2
Идентификатор                            : 3
Формат                                   : AC-3
Формат/Информация                        : Audio Coding 3
Расширение режима                        : CM (complete main)
Параметр Endianness формата              : Big
Идентификатор кодека                     : A_AC3
Продолжительность                        : 1 ч. 49 м.
Вид битрейта                             : Постоянный
Битрейт                                  : 448 Кбит/сек
Каналы                                   : 6 каналов
Расположение каналов                     : Front: L C R, Side: L R, LFE
Частота                                  : 48,0 КГц
Частота кадров                           : 31,250 кадров/сек (1536 spf)
Битовая глубина                          : 16 бит
Метод сжатия                             : С потерями
Размер потока                            : 351 Мбайт (10%)
Язык                                     : French
Default                                  : Нет
Forced                                   : Нет

Текст #1
Идентификатор                            : 4
Формат                                   : UTF-8
Идентификатор кодека                     : S_TEXT/UTF8
Идентификатор кодека/Информация          : UTF-8 Plain Text
Продолжительность                        : 1 ч. 45 м.
Битрейт                                  : 67 бит/сек
Count of elements                        : 889
Размер потока                            : 51,9 Кбайт (0%)
Язык                                     : Russian
Default                                  : Да
Forced                                   : Нет

Текст #2
Идентификатор                            : 5
Формат                                   : UTF-8
Идентификатор кодека                     : S_TEXT/UTF8
Идентификатор кодека/Информация          : UTF-8 Plain Text
Продолжительность                        : 1 ч. 44 м.
Битрейт                                  : 41 бит/сек
Count of elements                        : 927
Размер потока                            : 31,5 Кбайт (0%)
Язык                                     : English
Default                                  : Нет
Forced                                   : Нет



Скриншоты:
[+] Всего файлов в раздаче - 1:
Une_vieille_maitresse (2007).mkv3.34 GB

Показать еще раздачи по запросу тайная:
2020-06-16 U Тайная жизнь домашних животных 2 / The Secret Life of Pets 2 (2019) BDRip от MegaPeer | Лицензия 1.46 GB ↑ 750 ↓ 15
2020-04-09 U Тайная жизнь / A Hidden Life (2019) BDRip 1080p от селезень | D, P | iTunes 11.44 GB ↑ 163 ↓ 76
2020-03-09 U Тайная жизнь / A Hidden Life (2019) WEB-DLRip от MegaPeer | HDRezka Studio 2.18 GB ↑ 105 ↓ 28
2019-10-21 U Тайная жизнь домашних животных 2 / The Secret Life of Pets 2 (2019) BDRip-AVC от OlLanDGroup | Лицензия 745.84 MB ↑ 152 ↓ 11
2019-10-09 U Тайная жизнь домашних животных 2 / The Secret Life of Pets 2 (2019) BDRip 720p от селезень | D, P | Лицензия 4.91 GB ↑ 133 ↓ 48
2019-10-09 U Тайная жизнь домашних животных 2 / The Secret Life of Pets 2 (2019) BDRip-AVC от OlLanDGroup | D, P | Лицензия 1.94 GB ↑ 219 ↓ 59
2019-08-19 U Тайная жизнь домашних животных 2 / The Secret Life of Pets 2 (2019) BDRip от MegaPeer | HDRezka Studio 1.46 GB ↑ 99 ↓ 72

Отзывы
Зарегистрируйтесь чтобы добавить комментарий.
Обратная связь
Copyleft ©