↑↓Torrent.by
Поиск
Логин: Регистрация
Пароль: Восстановить пароль
Загрузка...

Человек-паук: Возвращение домой / Spider-Man: Homecoming (2017) BDRip-AVC от New-Team | iTunes

Скачать chelovek-pauk-vozvraschenie-domoy-spider-man-homecoming-2017-bdrip-avc-ot-new-team-itunes.torrent
U Магнитная ссылка Размер: 2.25 GB Раздают: 62 Качают: 30 Добавлен: 2017-10-09 13:51:44
Человек-паук: Возвращение домой / Spider-Man: Homecoming (2017) BDRip-AVC от New-Team | iTunes

Наша группа ВКонтакте
Присоединяйтесь!

Человек-паук: Возвращение домой
Spider-Man: Homecoming

«Homework can wait. The city can't»

Страна: США
Жанр:  фантастика, боевик, приключения

Год выпуска: 2017
Продолжительность: 02:12:31

Перевод: Профессиональный (полное дублирование) [iTunes]
Субтитры: русские (форсированные, полные), украинские (форсированные, полные), английские (форсированные, полные, SDH, SDH цветные)
Оригинальная аудиодорожка: английский

Режиссер: Джон Уоттс / Jon Watts

В ролях: Том Холланд, Роберт Дауни мл., Майкл Китон, Мариса Томей, Джон Фавро, Джейкоб Баталон, Зендея, Лора Хэрриер, Тони Револори, Дональд Гловер, Гвинет Пэлтроу, Боким Вудбайн

Описание:
После исторической встречи с командой Мстителей Питер Паркер возвращается домой, стараясь зажить обычной жизнью под опекой своей тёти Мэй. Но теперь за Питером приглядывает ещё кое-что... Тони Старк видел Человека-Паука в деле и должен стать его наставником. Когда новый злодей Стервятник угрожает уничтожить всё, что дорого Питеру, приходит время доказать всем, что такое настоящий супергерой.

Релиз:

Автор рипа: stalkerok

Семпл

Качество видео: BDRip-AVC [Spider-Man: Homecoming (2017) BD-Remux - BLUEBIRD]
Формат видео: MKV
Видео кодек: AVC
Аудио кодек: AC3
Видео: 1576 Кбит/сек, 1034*432 (2,40:1), в 23,976 (24000/1001) кадра/сек, AVC
Аудио #1: русский, 384 Кбит/сек, 48,0 КГц, 6 каналов, AC-3
Аудио #2: английский, 448 Кбит/сек, 48,0 КГц, 6 каналов, AC-3
Навигация по главам: есть


[+] x264/MediaInfo


x264 [info]: frame I:1794  Avg QP:16.93  size: 47574
x264 [info]: frame P:45779 Avg QP:19.34  size: 16080
x264 [info]: frame B:144427 Avg QP:21.03  size:  5238

Общее
Уникальный идентификатор                 : 240266772900186881443495427294048034962 (0xB4C1B27F6EE3C636BB7A33E92A702092)
Полное имя                               : M:!Rips2017Spider-Man HomecomingBDSpider-Man.Homecoming.2017.BDRip-AVC.RUS.stalkerok.new-team.mkv
Формат                                   : Matroska
Версия формата                           : Version 4 / Version 2
Размер файла                             : 2,25 Гбайт
Продолжительность                        : 2 ч. 13 м.
Общий поток                              : 2411 Кбит/сек
Название фильма                          : Spider-Man: Homecoming (2017) (Rip by stalkerok)
Дата кодирования                         : UTC 2017-10-08 17:26:28
Программа кодирования                    : mkvmerge v8.6.1 ('Flying') 64bit
Библиотека кодирования                   : libebml v1.3.3 + libmatroska v1.4.4

Видео
Идентификатор                            : 1
Формат                                   : AVC
Формат/Информация                        : Advanced Video Codec
Профиль формата                          : High@L4.1
Параметр CABAC формата                   : Да
Параметр ReFrames формата                : 14 кадров
Идентификатор кодека                     : V_MPEG4/ISO/AVC
Продолжительность                        : 2 ч. 13 м.
Битрейт                                  : 1576 Кбит/сек
Ширина                                   : 1034 пикселя
Высота                                   : 432 пикселя
Соотношение сторон                       : 2,40:1
Режим частоты кадров                     : Постоянный
Частота кадров                           : 23,976 (24000/1001) кадра/сек
Цветовое пространство                    : YUV
Субдискретизация насыщенности            : 4:2:0
Битовая глубина                          : 8 бит
Тип развёртки                            : Прогрессивная
Бит/(Пиксели*Кадры)                      : 0.147
Размер потока                            : 1,47 Гбайт (65%)
Заголовок                                : Spider-Man: Homecoming (2017) (Rip by stalkerok)
Библиотека кодирования                   : x264 core 150 r2833kMod df79067
Настройки программы                      : cabac=1 / ref=14 / deblock=1:-3:-2 / analyse=0x3:0x133 / me=umh / subme=11 / psy=1 / fade_compensate=0.00 / psy_rd=1.00:0.00 / mixed_ref=1 / me_range=32 / chroma_me=1 / trellis=2 / 8x8dct=1 / cqm=0 / deadzone=21,11 / fast_pskip=0 / chroma_qp_offset=-2 / threads=12 / lookahead_threads=3 / sliced_threads=0 / nr=0 / decimate=1 / interlaced=0 / bluray_compat=0 / constrained_intra=0 / bframes=14 / b_pyramid=2 / b_adapt=2 / b_bias=0 / direct=3 / weightb=1 / open_gop=0 / weightp=2 / keyint=240 / keyint_min=23 / scenecut=40 / intra_refresh=0 / rc_lookahead=60 / rc=crf / mbtree=0 / crf=18.5000 / qcomp=0.65 / qpmin=0 / qpmax=69 / qpstep=4 / vbv_maxrate=50000 / vbv_bufsize=62500 / crf_max=0.0 / nal_hrd=none / filler=0 / ip_ratio=1.35 / pb_ratio=1.25 / aq=3:0.80 / zones=176851,179946,q=32/181238,191999,q=32
Default                                  : Да
Forced                                   : Нет

Аудио #1
Идентификатор                            : 2
Формат                                   : AC-3
Формат/Информация                        : Audio Coding 3
Расширение режима                        : CM (complete main)
Параметр Endianness формата              : Big
Идентификатор кодека                     : A_AC3
Продолжительность                        : 2 ч. 13 м.
Вид битрейта                             : Постоянный
Битрейт                                  : 384 Кбит/сек
Каналы                                   : 6 каналов
Расположение каналов                     : Front: L C R, Side: L R, LFE
Частота                                  : 48,0 КГц
Частота кадров                           : 31,250 кадров/сек (1536 spf)
Метод сжатия                             : С потерями
Размер потока                            : 367 Мбайт (16%)
Язык                                     : Russian
Default                                  : Да
Forced                                   : Нет

Аудио #2
Идентификатор                            : 3
Формат                                   : AC-3
Формат/Информация                        : Audio Coding 3
Расширение режима                        : CM (complete main)
Параметр Endianness формата              : Big
Идентификатор кодека                     : A_AC3
Продолжительность                        : 2 ч. 13 м.
Вид битрейта                             : Постоянный
Битрейт                                  : 448 Кбит/сек
Каналы                                   : 6 каналов
Расположение каналов                     : Front: L C R, Side: L R, LFE
Частота                                  : 48,0 КГц
Частота кадров                           : 31,250 кадров/сек (1536 spf)
Метод сжатия                             : С потерями
Размер потока                            : 428 Мбайт (19%)
Язык                                     : English
Default                                  : Нет
Forced                                   : Нет

Текст #1
Идентификатор                            : 4
Формат                                   : UTF-8
Идентификатор кодека                     : S_TEXT/UTF8
Идентификатор кодека/Информация          : UTF-8 Plain Text
Продолжительность                        : 2 ч. 9 м.
Битрейт                                  : 1 бит/сек
Count of elements                        : 39
Размер потока                            : 1,82 Кбайт (0%)
Заголовок                                : Форсированные (вер. Ash61)
Язык                                     : Russian
Default                                  : Да
Forced                                   : Нет

Текст #2
Идентификатор                            : 5
Формат                                   : UTF-8
Идентификатор кодека                     : S_TEXT/UTF8
Идентификатор кодека/Информация          : UTF-8 Plain Text
Продолжительность                        : 2 ч. 12 м.
Битрейт                                  : 104 бит/сек
Count of elements                        : 1826
Размер потока                            : 102 Кбайт (0%)
Язык                                     : Russian
Default                                  : Нет
Forced                                   : Нет

Текст #3
Идентификатор                            : 6
Формат                                   : UTF-8
Идентификатор кодека                     : S_TEXT/UTF8
Идентификатор кодека/Информация          : UTF-8 Plain Text
Продолжительность                        : 2 ч. 0 м.
Битрейт                                  : 1 бит/сек
Count of elements                        : 26
Размер потока                            : 1,31 Кбайт (0%)
Заголовок                                : Форсированные (вер. Ash61)
Язык                                     : Ukrainian
Default                                  : Нет
Forced                                   : Нет

Текст #4
Идентификатор                            : 7
Формат                                   : UTF-8
Идентификатор кодека                     : S_TEXT/UTF8
Идентификатор кодека/Информация          : UTF-8 Plain Text
Продолжительность                        : 2 ч. 12 м.
Битрейт                                  : 94 бит/сек
Count of elements                        : 1821
Размер потока                            : 92,2 Кбайт (0%)
Язык                                     : Ukrainian
Default                                  : Нет
Forced                                   : Нет

Текст #5
Идентификатор                            : 8
Формат                                   : UTF-8
Идентификатор кодека                     : S_TEXT/UTF8
Идентификатор кодека/Информация          : UTF-8 Plain Text
Продолжительность                        : 5 с. 90 мс.
Битрейт                                  : 80 бит/сек
Count of elements                        : 2
Размер потока                            : 51,0 байт (0%)
Заголовок                                : Forced
Язык                                     : English
Default                                  : Нет
Forced                                   : Нет

Текст #6
Идентификатор                            : 9
Формат                                   : UTF-8
Идентификатор кодека                     : S_TEXT/UTF8
Идентификатор кодека/Информация          : UTF-8 Plain Text
Продолжительность                        : 2 ч. 12 м.
Битрейт                                  : 69 бит/сек
Count of elements                        : 1928
Размер потока                            : 67,6 Кбайт (0%)
Язык                                     : English
Default                                  : Нет
Forced                                   : Нет

Текст #7
Идентификатор                            : 10
Формат                                   : UTF-8
Идентификатор кодека                     : S_TEXT/UTF8
Идентификатор кодека/Информация          : UTF-8 Plain Text
Продолжительность                        : 2 ч. 12 м.
Битрейт                                  : 75 бит/сек
Count of elements                        : 2211
Размер потока                            : 74,0 Кбайт (0%)
Заголовок                                : SDH
Язык                                     : English
Default                                  : Нет
Forced                                   : Нет

Текст #8
Идентификатор                            : 11
Формат                                   : UTF-8
Идентификатор кодека                     : S_TEXT/UTF8
Идентификатор кодека/Информация          : UTF-8 Plain Text
Продолжительность                        : 2 ч. 12 м.
Битрейт                                  : 92 бит/сек
Count of elements                        : 2211
Размер потока                            : 90,3 Кбайт (0%)
Заголовок                                : SDH Colored
Язык                                     : English
Default                                  : Нет
Forced                                   : Нет

Меню
00:00:00.000                             : :1
00:05:34.082                             : :2
00:14:24.279                             : :3
00:20:50.999                             : :4
00:26:19.243                             : :5
00:36:27.976                             : :6
00:46:03.927                             : :7
00:54:40.193                             : :8
01:05:10.280                             : :9
01:12:03.277                             : :10
01:20:20.189                             : :11
01:29:41.542                             : :12
01:36:56.894                             : :13
01:44:44.152                             : :14
01:50:31.248                             : :15
01:57:53.565                             : :16




Скриншоты:
[+] Всего файлов в раздаче - 1:
Spider-Man.Homecoming.2017.BDRip-AVC.RUS.stalkerok.new-team.mkv2.25 GB

Текущая раздача:
ДатаКомментарии    РазмерПиры
2017-10-09 U Человек-паук: Возвращение домой / Spider-Man: Homecoming (2017) BDRip-AVC от New-Team | iTunes 2.25 GB ↑ 62 ↓ 30

Показать еще раздачи по запросу человек:
Вчера U Человек человеку волк / Dog Eat Dog (2016) BDRip 720p | iTunes 3.82 GB ↑ 62 ↓ 19
2017-11-29 U Человек человеку волк / Dog Eat Dog (2016) HDRip от MegaPeer | iTunes 745.57 MB ↑ 56 ↓ 21
2017-11-28 U Человек человеку волк / Dog Eat Dog (2016) BDRip от MegaPeer | iTunes 1.42 GB ↑ 230 ↓ 147
2017-11-28 U Человек человеку волк / Dog Eat Dog (2016) BDRip 1080p от ExKinoRay | iTunes 9.43 GB ↑ 165 ↓ 130
2017-11-22 U Человек человеку волк / Dog Eat Dog (2016) HDRip | L 1.46 GB ↑ 92 ↓ 88
2017-11-19 U Человек будущего / Future Man [01x01-06 из 13] (2017) WEBRip 1080p | NewStudio 7.05 GB ↑ 116 ↓ 63
2017-11-19 U Человек будущего / Future Man [S01] (2017) WEBRip 720p | BaibaKo 1К8.79 GB ↑ 167 ↓ 145

Отзывы
Зарегистрируйтесь чтобы добавить комментарий.
Обратная связь
Copyleft ©